<?xml version="1.0" standalone="no"?>
<!DOCTYPE svg PUBLIC "-//W3C//DTD SVG 1.1//EN" "http://www.w3.org/Graphics/SVG/1.1/DTD/svg11.dtd" >
<svg xmlns="http://www.w3.org/2000/svg">
<metadata>Generated by IcoMoon</metadata>
<defs>
<font id="icomoon" horiz-adv-x="1024">
<font-face units-per-em="1024" ascent="960" descent="-64" />
<missing-glyph horiz-adv-x="1024" />
<glyph unicode="&#x20;" horiz-adv-x="512" d="" />
<glyph unicode="&#xe900;" glyph-name="radio-off" d="M0 448c0 282.77 229.23 512 512 512 282.774 0 512-229.23 512-512 0-282.774-229.226-512-512-512-282.77 0-512 229.226-512 512z" />
<glyph unicode="&#xe901;" glyph-name="electric-guitar" d="M868.86 939.536c-4.491-1.536-130.706-125.553-134.027-131.504-1.562-2.88-2.736-9.791-2.736-15.358v-10.175l-106.090-104.243c-58.222-57.209-106.675-104.051-107.652-104.051-0.783 0-8.013 5.95-15.828 13.056-23.055 21.116-48.453 31.099-79.323 31.099-33.408 0-59.589-10.751-83.034-33.787-21.101-20.542-33.996-49.339-33.996-75.641 0-19.774-7.815-21.884-101.010-26.683-31.26-1.73-37.512-2.498-53.143-7.68-76.393-25.15-125.823-78.713-142.235-153.776-4.298-19.771-4.689-64.885-0.782-86.389 24.227-135.15 140.086-248.993 277.631-272.797 21.883-3.84 67.796-3.456 87.92 0.768 76.394 16.124 130.904 64.695 156.496 139.758 5.277 15.36 6.056 21.5 7.815 52.217 4.886 91.575 7.033 99.255 27.158 99.255 15.045 0 28.917 3.456 46.694 11.9 29.502 13.824 53.339 42.811 61.74 75.257 2.344 9.596 2.344 12.094 0.194 17.47-4.1 9.79-11.33 12.478-28.913 11.132-25.008-1.92-41.812 6.338-51.189 24.766-3.712 7.102-5.080 13.056-5.080 20.542v10.748l251.059 246.691h12.31c6.839 0 14.651 1.152 17.584 2.688 2.929 1.536 34.384 31.484 69.749 66.232l64.475 63.544v71.031l-32.823 32.060-32.629 32.252-33.799 0.384c-18.366 0.192-34.973 0-36.539-0.768zM926.497 898.644c3.712-4.032 2.933-4.799-71.896-78.134-74.635-73.527-75.418-74.295-79.521-70.647-3.515 3.072-3.906 5.759-3.906 22.845v19.39l112.34 110.386h19.734c17.39 0 20.125-0.384 23.248-3.84zM963.035 862.745c2.929-2.496 3.515-6.143 3.515-22.461v-19.39l-112.34-110.386h-19.734c-17.39 0-20.125 0.384-23.252 3.84-3.712 4.031-2.929 4.799 71.314 77.75 41.421 40.699 75.611 73.911 76.003 73.911 0.585 0 2.538-1.344 4.495-3.264zM764.336 704.748l27.352-26.877-300.88-295.645-26.767 26.302c-14.848 14.588-26.964 27.26-26.964 28.412 0 1.92 296.975 294.684 298.928 294.684 0.589 0 13.286-12.095 28.332-26.877zM445.283 577.276c11.527-3.65 27.549-13.63 37.709-23.998l7.621-7.87-49.042-48.571c-27.158-26.492-50.213-50.875-51.383-53.947-3.909-10.558 0-15.55 46.501-61.049 44.35-43.579 49.821-47.609 59.392-44.731 2.542 0.768 16.413 13.056 31.067 27.070l26.375 25.724 4.495-10.752c9.377-22.075 34.191-41.659 59.783-46.841 9.966-2.11 10.551-2.494 8.598-6.144-4.297-8.064-20.517-21.5-32.432-26.876-8.404-4.030-16.998-6.144-29.7-7.296-9.768-1.152-20.71-3.072-24.225-4.604-16.805-6.722-28.723-24.382-33.605-49.532-1.565-8.254-3.909-34.94-5.080-59.513-2.542-50.875-5.080-64.121-17.584-88.499-10.942-21.504-22.469-36.86-38.491-51.452-47.28-42.811-119.375-53.369-194.79-28.219-9.574 3.262-17.78 5.95-17.975 6.144-0.195 0.19 3.517 12.284 8.401 26.683 6.057 18.238 8.206 27.838 7.424 31.484-1.758 7.486-116.836 120.561-124.455 122.291-3.712 0.768-13.481-1.346-32.042-7.296-14.653-4.802-26.962-8.448-27.158-8.254-0.195 0.19-2.931 8.254-6.252 17.66-33.8 98.099-3.907 186.602 76.784 227.109 29.697 14.972 39.662 16.892 96.321 19.58 24.031 1.152 50.407 3.266 58.613 4.802 25.594 4.798 43.569 16.508 50.407 33.017 1.563 3.456 3.517 14.208 4.689 23.808 3.517 35.131 21.492 57.977 54.512 69.877 9.377 3.456 34.191 3.456 45.52 0.194zM160.423 109.813l46.5-45.883-4.298-13.056c-2.345-7.292-5.080-13.82-5.666-14.782-1.758-1.726-23.641 12.672-42.202 27.454-23.641 19.006-52.361 51.065-67.21 75.447-3.321 5.376-3.908 7.296-1.759 8.064 11.137 4.030 24.422 8.444 25.985 8.444 1.172 0.194 23.054-20.348 48.649-45.689zM332.536 412.178c-8.597-3.84-64.865-60.475-66.428-67.003-0.782-2.878-0.391-7.676 0.782-10.558 3.321-8.064 117.228-118.832 123.675-120.368 2.929-0.768 7.227-0.768 9.768 0 6.839 2.11 65.646 60.087 67.99 67.383 1.565 4.224 1.368 7.68 0 11.516-2.736 7.106-111.951 114.995-120.352 118.835-7.424 3.456-8.010 3.456-15.435 0.194zM381.381 326.554l41.029-40.313-27.355-26.876-83.034 81.587 13.090 12.862c7.229 7.296 13.676 13.056 14.262 13.056s19.538-18.044 42.007-40.316zM188.542 273.185c-32.628-32.059-32.824-32.252-32.824-40.697v-8.642l60.176-58.935 59.981-59.129h8.792c8.596 0 8.792 0.19 41.42 32.252 29.111 28.603 32.823 32.827 32.823 38.393 0 3.65-0.977 8.258-2.149 10.562-3.126 5.95-110.975 112.304-117.422 115.76-2.93 1.536-8.206 2.688-11.723 2.688-5.666 0-10.16-3.646-39.075-32.252zM298.344 164.334l-13.676-13.436-83.035 81.591 27.353 26.876 83.035-81.591-13.677-13.44zM409.52 109.817c-15.060-14.976 1.368-38.016 21.317-29.758 12.518 4.992 14.669 21.694 3.913 30.526-8.214 6.718-17.799 6.528-25.231-0.768zM328.046 83.705c-3.129-2.688-6.259-7.102-6.845-9.98-2.347-12.482 9.975-25.344 22.102-22.656 15.451 3.262 20.732 20.542 9.584 31.484-7.628 7.49-16.625 8.064-24.84 1.152z" />
<glyph unicode="&#xe902;" glyph-name="guitar" horiz-adv-x="1061" d="M870.532 926.096l-26.181-14.59-27.941 27.453-20.122-19.773c-10.942-10.751-19.928-20.541-19.928-21.501s4.103-5.951 9.183-10.943l9.179-9.215-20.319-20.158-20.513-20.157-20.517 20.157-20.904-20.733-21.102-20.541 20.908-20.541-3.321-26.685-3.324-26.685-101.987-100.596-6.056 3.84c-12.112 7.871-36.926 19.389-54.316 25.149-15.042 4.991-21.881 6.143-41.615 6.911-36.729 1.344-61.349-5.567-89.483-25.341-24.616-17.47-56.073-54.331-81.081-95.412-17.389-28.796-18.756-29.564-54.901-31.294-31.261-1.342-54.706-4.988-77.956-11.9-78.151-23.23-140.476-83.895-159.819-155.502-4.298-16.318-5.080-23.036-5.275-47.803 0-20.926 0.977-33.211 3.517-45.115 14.262-65.463 52.752-129.393 114.491-190.058 97.689-96.179 207.296-136.112 297.756-108.080 33.605 10.364 63.108 28.796 90.262 56.631 43.963 45.115 67.211 100.981 70.338 169.516 0.585 12.672 1.368 25.918 1.953 29.374 1.368 9.022 9.966 17.467 29.502 28.796 21.493 12.668 46.694 30.332 65.843 46.457 53.142 44.54 70.532 100.213 50.604 161.836-4.692 15.166-17.587 42.043-25.79 54.137l-3.909 5.954 51.189 50.103 51.189 50.299 54.118 6.527 21.102-20.734 20.904 20.734 21.102 20.541-10.745 10.559-10.551 10.559 20.319 20.158 20.517 20.157 9.768-9.599c5.471-5.375 10.745-9.599 11.721-9.599 1.174 0 10.942 8.831 22.078 19.774l19.928 19.581-13.674 13.439c-7.428 7.295-13.678 13.822-13.678 14.59s6.641 12.671 14.654 26.877l14.848 25.533-67.013 65.848c-36.732 36.284-67.408 65.848-67.994 65.656-0.585 0-12.698-6.527-26.96-14.59zM923.867 833.372l34.973-34.364-4.495-8.255c-16.607-29.565-20.122-33.98-58.222-71.032l-38.685-38.011-30.87-4.224-62.519 61.433 2.15 14.974 1.953 14.782 39.856 39.163c35.365 34.748 41.615 40.315 58.222 49.53 10.16 5.567 19.54 10.367 20.517 10.367 1.17 0.192 17.777-15.358 37.12-34.364zM644.48 520.452l-128.951-126.705-41.029 40.313 257.898 253.411 41.029-40.315-128.947-126.703zM519.241 617.206c13.48-3.455 40.251-14.973 40.251-17.471 0-0.768-27.941-28.796-61.937-62.201-58.807-57.209-62.716-60.661-71.899-62.775-17.975-4.414-34.191-13.63-48.845-28.028-42.786-42.427-42.59-107.889 0.391-150.126 18.951-18.622 49.821-31.484 75.809-31.484 13.48 0 34.582 5.376 49.624 12.672 25.596 12.478 48.453 40.313 54.901 66.999 2.344 9.022 5.669 12.862 64.282 70.455 33.993 33.595 62.519 61.049 63.301 61.049 2.538 0 14.654-27.26 18.169-40.7 2.15-8.060 2.933-17.276 2.344-28.603-0.976-22.078-8.594-37.819-26.767-55.673-16.216-15.744-47.086-38.396-70.725-51.836-30.087-16.892-45.915-35.131-53.142-61.239-1.565-5.76-3.518-22.268-4.103-36.476-2.344-55.673-15.045-91.765-44.548-128.048-36.535-44.54-89.092-64.889-143.406-55.483-57.831 9.794-120.938 47.035-176.817 104.243-81.277 83.321-112.733 171.436-84.989 238.819 9.769 23.614 34.191 52.604 58.809 70.075 14.458 10.364 46.695 24.956 64.474 29.371 19.147 4.608 28.134 5.76 59.786 6.912 49.235 1.536 70.531 14.588 97.299 58.935 22.663 37.244 49.821 69.497 68.575 81.207 19.734 12.479 44.35 15.742 69.164 9.407zM453.789 371.862c37.906-37.244 37.124-35.518 20.125-43.582-12.31-5.95-29.502-5.95-42.006 0-23.837 11.33-35.167 41.852-23.64 64.121 3.515 6.528 8.4 12.862 10.353 12.862 0.585 0 16.607-14.972 35.167-33.401zM227.732 281.823l-19.929-19.58 133.834-131.504 41.028 40.313-66.427 65.273c-36.536 35.899-66.819 65.273-67.406 65.273s-9.964-8.832-21.101-19.774z" />
<glyph unicode="&#xe903;" glyph-name="vocal" d="M713.055 937.806c-61.155-9.983-116.447-47.61-149.27-101.556-15.433-25.149-28.917-68.536-28.917-92.725v-9.599l-11.136-1.152c-23.055-2.688-43.568-17.854-50.213-37.051-3.712-10.367-4.103-29.948-0.976-38.779l2.344-6.335-162.162-159.531c-177.403-174.892-171.346-168.174-177.598-197.544-1.563-7.68-2.736-18.048-2.54-23.040 0.586-8.828 0.195-9.406-13.090-23.036-26.181-26.876-33.8-38.587-38.88-59.513-5.471-23.036-2.735-46.267 7.62-66.615l4.884-9.216-4.884-6.528c-31.651-41.465-27.158-99.251 10.55-134.576 16.412-15.55 27.158-16.892 36.145-4.798 7.424 9.406 5.471 16.896-7.033 29.948-15.239 15.744-21.492 29.18-21.296 46.651 0.196 14.592 4.494 28.99 11.137 37.244l4.103 4.992 6.643-3.84c13.090-7.296 27.743-10.752 44.937-10.752 31.456-0.19 49.626 7.87 78.346 34.94l20.319 19.006 15.239 0.19c23.055 0.194 45.132 8.448 62.325 23.23l8.987 7.87 72.875-17.086c57.051-13.436 73.073-17.854 74.635-20.732 1.174-1.92 7.23-8.638 13.48-15.166l11.333-11.71v-120.945l4.688-4.992c2.542-2.688 6.839-5.566 9.377-6.144 2.542-0.574 24.229-0.958 48.066-0.574l43.374 0.574 5.274 5.376 5.471 5.186 0.976 62.197 0.976 62.011 6.254 5.182c9.183 7.68 21.098 26.302 26.178 40.891 20.517 60.281-27.743 125.169-92.997 125.363-19.928 0-46.109-9.6-61.349-22.462l-7.621-6.334-29.111 6.718c-15.824 3.84-30.281 7.296-31.846 7.87-1.759 0.578 33.020 36.092 103.355 105.205l106.090 104.243 9.183-2.688c12.31-3.84 30.479-2.304 42.203 3.456 18.169 9.022 32.234 30.523 32.234 49.529v7.102l20.517 2.304c55.095 6.528 103.355 31.294 138.913 71.607 38.879 44.156 56.854 99.637 51.383 158.382-11.527 121.137-126.797 207.911-249.494 187.753zM794.917 895.955c35.167-10.175 57.83-23.613 81.474-48.186 31.846-33.404 47.671-72.183 47.671-118.066 0-44.923-15.631-84.278-46.303-116.722-16.805-17.66-30.091-27.454-51.778-38.012-22.663-11.132-42.982-16.124-70.919-17.47l-23.252-1.152-157.864 155.118v18.622c0 84.086 59.396 153.581 145.167 169.708 21.098 3.839 54.901 2.304 75.805-3.84zM535.651 692.268c3.321-1.536 44.741-40.699 91.633-86.966l85.38-84.085v-8.254c0-10.942-8.4-19.39-19.149-19.39-6.839 0-11.527 4.224-95.539 86.967-87.333 85.62-88.507 86.964-88.507 94.451 0 8.639 4.301 15.166 11.725 18.046 6.641 2.496 7.227 2.496 14.457-0.768zM569.648 552.51l68.773-67.577-214.916-211.174-68.382 67.193c-37.512 36.857-68.382 67.957-68.382 69.109 0 1.92 211.008 210.215 212.961 210.215 0.585 0 32.044-30.525 69.947-67.766zM368.406 219.622l-27.937-27.454-137.741 135.344 55.683 54.715 137.743-135.344-27.747-27.26zM303.933 165.482c-3.517-1.532-12.114-2.684-19.147-2.684-21.492 0-27.548 3.836-67.015 42.427-40.834 39.929-45.327 46.841-45.132 68.535 0 7.486 1.172 15.934 2.54 19.006l2.345 5.76 132.661-130.355-6.252-2.688zM613.8 220.774c44.354-21.694 43.963-82.359-0.585-103.859-12.31-5.954-34.384-6.144-47.28-0.194-12.31 5.376-23.446 15.744-29.111 26.876-4.103 7.68-4.886 11.904-4.886 25.534 0 13.82 0.783 17.854 5.274 25.915 14.654 27.648 49.236 39.164 76.588 25.728zM186.511 180.648c14.262-14.204 29.893-28.987 34.582-32.633 4.884-3.65 8.792-7.68 8.987-8.832 0-2.882-14.849-16.318-25.008-22.652-25.595-15.744-60.958-8.258-77.956 16.702-8.206 12.094-10.941 22.459-9.769 36.857 1.172 14.976 6.838 26.108 20.515 39.739l10.941 11.136 5.861-7.296c3.126-3.84 17.584-18.812 31.847-33.020zM454.177 212.326c15.828-3.84 32.044-7.68 35.95-8.832l7.23-1.726-2.736-9.022c-1.562-4.802-2.736-13.056-2.736-18.238 0-6.912-0.783-9.216-2.929-9.216-3.518 0-95.345 21.31-96.516 22.462-1.174 0.768 29.305 31.291 31.258 31.291 0.783 0 14.46-3.072 30.479-6.718zM609.112 35.324v-38.971h-39.073v77.751h39.073v-38.78zM620.445 764.259c-5.274-5.183-5.859-6.911-5.080-14.014 1.957-16.51 42.789-69.496 75.418-97.908 12.895-11.135 20.904-12.095 29.893-3.456 4.491 4.416 5.665 7.295 5.665 13.631 0 7.487-1.174 9.215-20.125 28.412-19.928 20.542-37.705 42.235-50.015 61.433-12.31 19.006-24.422 23.037-35.756 11.903zM762.496 633.334c-10.368-5.568-13.886-18.239-7.629-27.455 4.107-6.144 15.451-9.6 22.689-6.912 7.040 2.688 12.127 10.752 11.93 19.008-0.391 12.863-15.645 21.503-26.99 15.359zM478.212 531.2c-5.862-1.152-13.872-4.034-17.584-6.338s-21.881-19.196-40.444-37.435c-38.685-38.396-42.591-44.153-42.397-65.847 0-42.236 42.986-69.497 82.059-52.027 9.381 4.224 17.781 11.326 45.915 39.164 30.672 30.332 34.776 35.131 38.685 45.499 3.515 9.212 4.297 14.204 3.712 24.956-1.565 21.884-12.116 37.819-31.455 46.841-14.852 6.912-24.422 8.258-38.491 5.186zM504.587 488.389c3.518-3.65 4.886-6.912 4.886-12.482 0-6.524-1.368-9.022-9.768-17.467l-9.574-9.984-13.678 13.436-13.872 13.246 8.207 8.448c12.504 12.478 24.225 14.014 33.799 4.802zM449.492 434.443l13.089-13.056-8.207-7.87c-11.136-10.752-17.386-12.862-25.984-9.216-8.207 3.266-13.872 13.44-11.919 21.12 1.174 4.608 15.828 22.075 18.56 22.075 0.783 0 7.23-5.95 14.46-13.052zM580.795 186.222c-14.475-8.258-14.277-26.88 0.783-34.366 14.084-7.106 31.097 9.022 24.839 23.614-1.368 3.456-3.913 7.296-5.672 8.638-4.304 3.456-15.258 4.608-19.95 2.114z" />
<glyph unicode="&#xe904;" glyph-name="human" d="M896 42.667v85.333c0 58.88-23.936 112.299-62.464 150.869s-91.989 62.464-150.869 62.464h-341.333c-58.88 0-112.299-23.936-150.869-62.464s-62.464-91.989-62.464-150.869v-85.333c0-23.552 19.115-42.667 42.667-42.667s42.667 19.115 42.667 42.667v85.333c0 35.371 14.293 67.285 37.504 90.496s55.125 37.504 90.496 37.504h341.333c35.371 0 67.285-14.293 90.496-37.504s37.504-55.125 37.504-90.496v-85.333c0-23.552 19.115-42.667 42.667-42.667s42.667 19.115 42.667 42.667zM725.333 640c0 58.88-23.936 112.299-62.464 150.869s-91.989 62.464-150.869 62.464-112.299-23.936-150.869-62.464-62.464-91.989-62.464-150.869 23.936-112.299 62.464-150.869 91.989-62.464 150.869-62.464 112.299 23.936 150.869 62.464 62.464 91.989 62.464 150.869zM640 640c0-35.371-14.293-67.285-37.504-90.496s-55.125-37.504-90.496-37.504-67.285 14.293-90.496 37.504-37.504 55.125-37.504 90.496 14.293 67.285 37.504 90.496 55.125 37.504 90.496 37.504 67.285-14.293 90.496-37.504 37.504-55.125 37.504-90.496z" />
<glyph unicode="&#xe905;" glyph-name="human1" d="M896 42.667v85.333c0 58.88-23.936 112.299-62.464 150.869s-91.989 62.464-150.869 62.464h-341.333c-58.88 0-112.299-23.936-150.869-62.464s-62.464-91.989-62.464-150.869v-85.333c0-23.552 19.115-42.667 42.667-42.667s42.667 19.115 42.667 42.667v85.333c0 35.371 14.293 67.285 37.504 90.496s55.125 37.504 90.496 37.504h341.333c35.371 0 67.285-14.293 90.496-37.504s37.504-55.125 37.504-90.496v-85.333c0-23.552 19.115-42.667 42.667-42.667s42.667 19.115 42.667 42.667zM725.333 640c0 58.88-23.936 112.299-62.464 150.869s-91.989 62.464-150.869 62.464-112.299-23.936-150.869-62.464-62.464-91.989-62.464-150.869 23.936-112.299 62.464-150.869 91.989-62.464 150.869-62.464 112.299 23.936 150.869 62.464 62.464 91.989 62.464 150.869zM640 640c0-35.371-14.293-67.285-37.504-90.496s-55.125-37.504-90.496-37.504-67.285 14.293-90.496 37.504-37.504 55.125-37.504 90.496 14.293 67.285 37.504 90.496 55.125 37.504 90.496 37.504 67.285-14.293 90.496-37.504 37.504-55.125 37.504-90.496z" />
<glyph unicode="&#xe906;" glyph-name="logo" horiz-adv-x="975" d="M785.374 900.654c-78.312 47.874-185.876 72.146-319.705 72.146-133.831 0-241.399-24.272-319.708-72.146-94.089-57.514-143.824-149.354-143.824-265.584 0-156.418 133.221-365.485 174.050-425.833 46.612-68.901 97.505-131.594 143.297-176.538 58.327-57.242 104.778-83.9 146.186-83.9 41.411 0 87.862 26.658 146.181 83.895 45.797 44.944 96.685 107.637 143.297 176.538 40.828 60.353 174.046 269.419 174.046 425.836 0 116.232-49.732 208.072-143.818 265.586z" />
<glyph unicode="&#xe907;" glyph-name="Loop" horiz-adv-x="1152" d="M22.010 879.659c-7.404-2.744-14.807-9.602-18.209-17.049-3.602-7.643-3.802-16.265-3.802-170.686 0-155.596 0.2-163.041 3.802-170.88 7.604-16.265-4.402-15.286 184.287-15.873 186.088-0.589 178.884-0.98 189.289 12.541 7.804 9.994 8.604 21.948 2.202 32.53-2.802 4.703-29.414 32.138-59.228 61.338-29.814 29.002-54.226 53.498-54.226 54.282s5.603 5.486 12.406 10.778c53.426 40.173 114.054 65.256 182.687 75.25 21.409 3.136 79.636 3.136 102.047 0 138.066-19.596 250.719-105.233 304.143-231.434 6.803-15.873 15.808-44.484 18.808-59.768 1.402-6.468 3.002-13.326 3.402-15.090 1.001-3.331 5.802-3.528 65.631-3.528h64.63l-2.601 17.245c-22.010 137.175-105.249 262.2-225.906 339.802-141.266 90.732-320.951 106.801-477.224 42.328-41.619-17.245-85.841-43.308-121.658-71.723l-18.609-14.697-61.429 59.965c-40.819 39.781-63.83 60.945-68.832 63.101-7.404 2.94-16.008 3.527-21.61 1.568zM7.211 299.604c22.010-137.371 105.249-262.396 225.906-339.997 141.267-90.732 320.951-106.801 477.225-42.328 41.619 17.244 85.841 43.308 121.656 71.722l18.61 14.697 62.428-60.749c66.031-64.276 69.633-67.020 84.64-64.668 9.805 1.568 18.609 8.426 23.011 17.833 3.602 7.643 3.803 16.265 3.803 170.685 0 155.596-0.201 163.043-3.803 170.881-7.603 16.265 4.403 15.284-184.285 15.873-186.088 0.588-178.885 0.979-189.289-12.543-7.804-9.994-8.604-21.948-2.202-32.53 2.802-4.703 29.414-32.138 59.228-61.336 29.814-29.004 54.225-53.499 54.225-54.282 0-0.785-5.603-5.487-12.406-10.779-53.425-40.173-114.053-65.256-182.685-75.25-21.411-3.136-79.638-3.136-102.048 0-138.065 19.597-250.717 105.233-304.142 231.434-6.803 15.873-15.808 44.484-18.81 59.77-1.4 6.467-3.002 13.325-3.401 15.284-1.001 3.136-5.804 3.332-65.631 3.332h-64.63l2.601-17.050z" />
<glyph unicode="&#xe908;" glyph-name="Metronome" horiz-adv-x="829" d="M818.888 837.316c-11.854 10.604-29.481 8.888-39.361-3.84l-29.145-37.533c-8.021 4.334-16.94 6.654-26.044 6.654-17.193 0-33.368-8.076-44.383-22.158l-19.241-24.62c-17.701-22.646-17.725-54.978-1.702-77.566l-64.185-82.678-59.928 321.596c-5.808 31.194-33.577 55.628-63.213 55.628h-239.501c-29.637 0-57.403-24.436-63.211-55.626l-121.36-651.309h276.371v171.359h-31.924c-15.434 0-27.95 13.434-27.95 30.003 0 16.564 12.516 29.998 27.95 29.998h31.924v55.682h-31.924c-15.434 0-27.95 13.432-27.95 30s12.516 30 27.95 30h31.924v55.68h-31.921c-15.438 0-27.95 13.432-27.95 30s12.512 30 27.95 30h31.921v55.68h-31.922c-15.436 0-27.95 13.432-27.95 30s12.514 30 27.95 30h119.749c15.436 0 27.95-13.432 27.95-30s-12.514-30-27.95-30h-31.928v-55.682h31.928c15.438 0 27.95-13.432 27.95-30s-12.512-30-27.95-30h-31.928v-55.68h31.928c15.434 0 27.95-13.432 27.95-30s-12.516-30-27.95-30h-31.928v-55.682h31.928c15.434 0 27.95-13.432 27.95-30.001 0-16.564-12.516-29.998-27.95-29.998h-31.928v-171.359h31.723l290.306 373.921c8.021-4.334 16.945-6.654 26.044-6.654 17.193 0 33.368 8.074 44.378 22.152l19.246 24.618c9.918 12.686 14.638 28.792 13.292 45.352-0.975 11.902-5.008 22.98-11.581 32.23l29.169 37.574c9.889 12.732 8.285 31.65-3.574 42.259zM484.083 265.865h172.184l-33.324 178.854-138.86-178.854zM667.448 205.863l-631.004 0.005-35.343-189.679c-3.186-17.106 0.617-34.294 10.44-47.153 9.822-12.863 24.78-20.236 41.034-20.236h598.747c16.257 0 31.208 7.378 41.028 20.236 9.826 12.863 13.629 30.047 10.44 47.153l-35.343 189.674z" />
<glyph unicode="&#xe909;" glyph-name="Vector" horiz-adv-x="731" d="M690.795 34.133h-40.638v139.649c0 69.461-28.16 135.934-77.327 182.355l-68.793 64.98c-10.85 10.284-16.824 24.366-16.824 39.682s5.975 29.397 16.824 39.637l68.793 64.982c49.167 46.507 77.327 112.939 77.327 182.4v139.648h40.638c22.469 0 40.633 19.115 40.633 42.667s-18.164 42.667-40.633 42.667h-650.16c-22.471 0-40.635-19.115-40.635-42.667s18.164-42.667 40.635-42.667h40.635v-139.648c0-69.461 28.16-135.936 77.328-182.358l68.795-64.981c10.85-10.282 16.823-24.364 16.823-39.68s-5.973-29.399-16.823-39.639l-68.795-64.98c-49.168-46.504-77.328-112.937-77.328-182.399v-139.649h-40.635c-22.471 0-40.635-19.115-40.635-42.667s18.164-42.667 40.635-42.667h650.16c22.469 0 40.633 19.115 40.633 42.667s-18.164 42.667-40.633 42.667zM203.175 169.428c0 31.359 11.621 60.801 32.751 82.988l108.251 113.664c11.906 12.503 31.208 12.503 43.114 0l108.251-113.664c21.129-22.187 32.753-51.629 32.753-82.988v-135.295h-325.121v135.295z" />
<glyph unicode="&#xe90a;" glyph-name="chevron-right" d="M414.165 140.502l256 256c16.683 16.683 16.683 43.691 0 60.331l-256 256c-16.683 16.683-43.691 16.683-60.331 0s-16.683-43.691 0-60.331l225.835-225.835-225.835-225.835c-16.683-16.683-16.683-43.691 0-60.331s43.691-16.683 60.331 0z" />
<glyph unicode="&#xe90b;" glyph-name="arrow-pointer" horiz-adv-x="975" d="M406.462-55.905h-390.208c-8.972 0-16.254 7.626-16.254 17.023v408.556c0 4.53 1.707 8.85 4.762 12.054 3.056 3.184 7.184 4.969 11.492 4.969h0.016l97.524-0.117c8.972 0 16.238-7.626 16.238-17.023v-168.955l256.747 268.946c6.095 6.383 16.888 6.383 22.983 0l91.95-96.3c6.354-6.656 6.354-17.413 0-24.069l-256.716-268.898h161.353c8.972 0 16.254-7.612 16.254-17.008l0.114-102.137c0-4.515-1.707-8.855-4.746-12.054-3.056-3.204-7.185-4.988-11.508-4.988zM32.508-21.86h357.683l-0.081 68.091h-184.352c-6.567 0-12.499 4.155-15.019 10.503-2.519 6.354-1.122 13.687 3.527 18.559l272.985 285.92-68.965 72.232-273.001-285.993c-4.648-4.866-11.638-6.295-17.717-3.691-6.079 2.653-10.045 8.87-10.045 15.745v193.044l-65.016 0.083v-374.491zM576.97 435.025c-4.311 0-8.455 1.79-11.493 4.988l-91.949 96.301c-6.355 6.656-6.355 17.415 0 24.071l256.715 268.916h-161.353c-8.972 0-16.252 7.609-16.252 17.006l-0.117 102.139c0 4.511 1.707 8.852 4.749 12.052 3.052 3.2 7.183 4.988 11.508 4.988h390.207c8.972 0 16.252-7.626 16.252-17.023v-408.557c0-4.529-1.707-8.852-4.764-12.052-3.052-3.183-7.183-4.971-11.488-4.971h-0.020l-97.524 0.119c-8.972 0-16.238 7.626-16.238 17.023v168.955l-256.746-268.967c-3.052-3.184-7.183-4.988-11.488-4.988zM507.987 548.366l68.964-72.232 273.003 285.991c4.632 4.885 11.62 6.35 17.714 3.694 6.081-2.656 10.045-8.869 10.045-15.747v-193.043l65.014-0.085v374.494h-357.683l0.083-68.093h184.349c6.568 0 12.503-4.154 15.019-10.503 2.521-6.35 1.122-13.686-3.525-18.555l-272.984-285.922z" />
<glyph unicode="&#xe90c;" glyph-name="arrow-left-circle" d="M981.333 426.667c0 129.579-52.565 246.997-137.472 331.861s-202.283 137.472-331.861 137.472-246.997-52.565-331.861-137.472-137.472-202.283-137.472-331.861 52.565-246.997 137.472-331.861 202.283-137.472 331.861-137.472 246.997 52.565 331.861 137.472 137.472 202.283 137.472 331.861zM896 426.667c0-106.069-42.923-201.984-112.469-271.531s-165.461-112.469-271.531-112.469-201.984 42.923-271.531 112.469-112.469 165.461-112.469 271.531 42.923 201.984 112.469 271.531 165.461 112.469 271.531 112.469 201.984-42.923 271.531-112.469 112.469-165.461 112.469-271.531zM682.667 469.334h-238.336l97.835 97.835c16.683 16.683 16.683 43.691 0 60.331s-43.691 16.683-60.331 0l-170.667-170.667c-4.096-4.096-7.168-8.789-9.259-13.824-2.176-5.205-3.243-10.795-3.243-16.341 0-10.923 4.181-21.845 12.501-30.165l170.667-170.667c16.683-16.683 43.691-16.683 60.331 0s16.683 43.691 0 60.331l-97.835 97.835h238.336c23.552 0 42.667 19.115 42.667 42.667s-19.115 42.667-42.667 42.667z" />
<glyph unicode="&#xe90d;" glyph-name="menu" d="M128 384h768c23.552 0 42.667 19.115 42.667 42.667s-19.115 42.667-42.667 42.667h-768c-23.552 0-42.667-19.115-42.667-42.667s19.115-42.667 42.667-42.667zM128 640h768c23.552 0 42.667 19.115 42.667 42.667s-19.115 42.667-42.667 42.667h-768c-23.552 0-42.667-19.115-42.667-42.667s19.115-42.667 42.667-42.667zM128 128h768c23.552 0 42.667 19.115 42.667 42.667s-19.115 42.667-42.667 42.667h-768c-23.552 0-42.667-19.115-42.667-42.667s19.115-42.667 42.667-42.667z" />
<glyph unicode="&#xe90e;" glyph-name="chevron-down" d="M225.835 524.502l256-256c16.683-16.683 43.691-16.683 60.331 0l256 256c16.683 16.683 16.683 43.691 0 60.331s-43.691 16.683-60.331 0l-225.835-225.835-225.835 225.835c-16.683 16.683-43.691 16.683-60.331 0s-16.683-43.691 0-60.331z" />
<glyph unicode="&#xe90f;" glyph-name="chevron-left" d="M670.165 200.832l-225.835 225.835 225.835 225.835c16.683 16.683 16.683 43.691 0 60.331s-43.691 16.683-60.331 0l-256-256c-16.683-16.683-16.683-43.691 0-60.331l256-256c16.683-16.683 43.691-16.683 60.331 0s16.683 43.691 0 60.331z" />
<glyph unicode="&#xe910;" glyph-name="chevron-up" d="M798.165 328.832l-256 256c-16.683 16.683-43.691 16.683-60.331 0l-256-256c-16.683-16.683-16.683-43.691 0-60.331s43.691-16.683 60.331 0l225.835 225.835 225.835-225.835c16.683-16.683 43.691-16.683 60.331 0s16.683 43.691 0 60.331z" />
<glyph unicode="&#xe911;" glyph-name="arrow-pointer-less" horiz-adv-x="994" d="M95.553 448h372.816c8.571 0 15.529-7.168 15.529-16.002v-384c0-4.256-1.629-8.318-4.551-11.327-2.918-2.994-6.864-4.671-10.978-4.671h-0.015l-93.178 0.111c-8.571 0-15.514 7.168-15.514 15.998v158.801l-245.303-252.783c-5.824-6.002-16.135-6.002-21.958 0l-87.85 90.51c-6.072 6.258-6.072 16.369 0 22.624l245.272 252.738h-154.16c-8.572 0-15.53 7.15-15.53 15.983l-0.109 96c0 4.241 1.631 8.318 4.535 11.327 2.919 3.009 6.864 4.689 10.995 4.689zM452.837 416h-341.739l0.078-64h176.135c6.274 0 11.942-3.906 14.348-9.873 2.409-5.969 1.072-12.863-3.369-17.441l-260.816-268.737 65.891-67.885 260.833 268.797c4.439 4.578 11.116 5.921 16.926 3.473 5.807-2.494 9.595-8.337 9.595-14.8v-181.441l62.118-0.078v351.985zM892.512 960.001c4.117 0 8.078-1.68 10.981-4.688l87.85-90.512c6.072-6.256 6.072-16.368 0-22.624l-245.272-252.753h154.16c8.571 0 15.529-7.15 15.529-15.983l0.108-96c0-4.241-1.629-8.318-4.533-11.327-2.921-3.009-6.864-4.689-10.996-4.689h-372.814c-8.571 0-15.529 7.168-15.529 16.002v384c0 4.256 1.629 8.32 4.551 11.328 2.918 2.992 6.864 4.672 10.978 4.672h0.015l93.178-0.112c8.571 0 15.514-7.168 15.514-16v-158.8l245.302 252.8c2.918 2.992 6.864 4.688 10.978 4.688zM958.422 853.473l-65.891 67.888-260.834-268.798c-4.424-4.593-11.101-5.969-16.926-3.473-5.807 2.494-9.598 8.337-9.598 14.799v181.44l-62.118 0.080v-351.985h341.742l-0.078 64h-176.134c-6.274 0-11.942 3.906-14.351 9.873-2.406 5.969-1.069 12.863 3.37 17.441l260.819 268.736z" />
<glyph unicode="&#xe912;" glyph-name="pause" horiz-adv-x="838" d="M203.149 881.804c51.533 0 93.309-41.776 93.309-93.309v-763.291c0-51.533-41.776-93.309-93.309-93.309s-93.309 41.776-93.309 93.309v763.291c0 51.533 41.776 93.309 93.309 93.309zM669.695 881.804c51.533 0 93.309-41.776 93.309-93.309v-763.291c0-51.533-41.776-93.309-93.309-93.309s-93.309 41.776-93.309 93.309v763.291c0 51.533 41.776 93.309 93.309 93.309z" />
<glyph unicode="&#xe913;" glyph-name="play" d="M994.986 492.645l-910.222 460.799c-17.636 8.909-39.14 8.704-56.548-0.41-17.522-9.216-28.217-26.010-28.217-44.237v-921.598c0-18.227 10.695-35.021 28.217-44.237 8.875-4.608 18.773-6.963 28.672-6.963 9.557 0 19.229 2.15 27.876 6.554l910.222 460.799c17.864 9.114 29.014 26.112 29.014 44.646s-11.15 35.533-29.014 44.646z" />
<glyph unicode="&#xe914;" glyph-name="drums-bass" horiz-adv-x="694" d="M89.419 628.568c-4.606-1.896-7.587-6.369-8.4-12.328-0.677-4.337-1.219-5.421-2.981-5.014-1.219 0.406-7.587 2.709-14.361 5.014-20.187 7.181-34.684 5.553-47.148-5.421-9.484-8.265-13.142-16.936-13.277-31.024-0.135-14.769 8.671-28.725 22.49-35.635 2.303-1.083 15.445-6.23 29.536-11.244l25.335-9.213v-199.839l-25.335-0.542c-22.626-0.406-26.148-0.677-31.703-3.25-8.129-3.795-16.935-12.602-20.729-20.731-2.845-6.233-2.845-6.91-2.845-97.683 0-90.776 0-91.453 2.845-97.683 3.794-8.129 12.6-16.936 20.729-20.731 5.826-2.709 8.535-2.844 49.316-3.25l42.949-0.406v-94.568l-25.471-12.873c-29.806-15.036-31.974-17.342-26.69-28.586 2.168-4.469 6.774-7.452 11.516-7.452 1.355 0 14.090 5.827 28.316 12.873l25.877 12.869 25.877-12.869c14.226-7.046 26.961-12.873 28.316-12.873 1.49 0 4.2 0.677 6.097 1.625 3.929 1.764 6.638 7.181 27.774 53.519l11.245 24.791 4.2-3.386c23.168-18.832 50.806-31.975 80.748-38.205 15.852-3.254 49.181-3.254 65.033 0 29.94 6.23 57.579 19.373 80.747 38.205l4.198 3.386 11.247-24.791c21.134-46.338 23.846-51.755 27.774-53.519 1.896-0.948 4.605-1.625 6.098-1.625 1.354 0 14.088 5.827 28.315 12.873l25.877 12.869 25.742-12.869c14.092-7.046 26.961-12.873 28.586-12.873 8.806 0 15.581 10.567 12.060 18.967-1.493 3.525-5.421 5.962-27.235 16.936l-25.607 13.008v121.664l43.084 0.406c40.646 0.406 43.355 0.542 49.182 3.25 8.129 3.795 16.936 12.602 20.731 20.731 2.709 5.959 2.844 7.858 2.844 57.037 0 49.182-0.135 51.078-2.844 57.040-3.795 8.129-12.602 16.936-20.731 20.728-5.556 2.577-9.077 2.847-31.569 3.254l-25.468 0.542v254.031l25.468 9.213c13.956 5.014 27.235 10.161 29.402 11.244 13.817 6.91 22.624 20.866 22.488 35.635-0.135 14.088-3.792 22.759-13.276 31.024-12.466 10.973-26.961 12.602-47.15 5.421-6.636-2.306-13.14-4.608-14.359-5.014-1.761-0.542-2.302 0.677-2.983 5.285-1.083 8.265-7.449 13.954-14.359 12.734-3.118-0.406-6.233-2.302-8.671-4.876-3.254-3.66-3.66-5.15-3.66-14.092v-9.89l-25.336-9.213c-14.088-5.014-27.774-10.296-30.482-11.789-12.734-6.365-21.679-20.999-21.544-35.361 0.139-13.817 3.931-22.624 13.279-30.753 12.463-10.973 26.961-12.602 47.147-5.421 6.775 2.302 13.279 4.608 14.633 5.014 2.167 0.677 2.302-5.691 2.302-121.394v-122.071h-111.365l-9.213 8.536c-17.342 16.123-41.73 30.076-64.628 37.122l-12.599 3.792v58.936h6.094c5.15 0 6.369-0.542 7.317-3.115 4.879-12.602 14.362-29.402 19.509-34.007 10.164-9.348 23.575-13.008 36.312-9.754 12.734 3.386 61.916 27.096 68.010 32.923 9.893 9.619 14.362 23.030 11.925 35.903-1.083 5.959-20.731 49.994-37.531 84.269-8.536 17.342-27.774 26.558-45.793 21.815-4.063-1.083-19.78-7.723-34.955-14.904-30.347-14.224-36.58-18.832-41.865-31.024-2.302-5.014-3.115-9.484-2.98-16.394 0-8.4 0.677-11.247 6.233-23.575 3.521-7.588 6.365-14.227 6.365-14.498s-17.613-0.542-39.289-0.542c-21.542 0-39.291 0.271-39.291 0.542s2.845 6.91 6.368 14.498c5.555 12.328 6.232 15.175 6.232 23.575 0.136 6.91-0.677 11.38-2.981 16.394-5.284 12.192-11.516 16.8-41.864 31.024-15.174 7.181-30.89 13.821-34.955 14.904-18.019 4.743-37.258-4.473-45.793-21.815-16.8-34.274-36.445-78.31-37.529-84.269-2.439-12.873 2.032-26.284 11.923-35.903 5.961-5.691 54.871-29.402 67.606-32.788 12.736-3.254 26.555 0.271 36.716 9.619 5.148 4.605 14.632 21.405 19.51 34.007 0.948 2.573 2.168 3.115 7.316 3.115h6.097v-29.805c0-23.981-0.406-29.808-1.761-29.808-5.961 0-35.632-12.057-47.148-19.238-3.387-2.031-6.639-3.792-7.045-3.792-0.271 0-1.084 1.49-1.49 3.25-1.626 6.369-11.245 16.665-19.374 20.592l-7.858 3.931-113.129 0.813v94.974c0 89.689 0.135 94.839 2.439 94.162 1.219-0.406 7.858-2.712 14.497-5.014 20.187-7.181 34.684-5.553 47.148 5.421 9.484 8.265 13.142 16.936 13.277 31.024 0.136 14.769-8.671 28.725-22.49 35.635-2.168 1.083-15.445 6.23-29.4 11.244l-25.471 9.213v10.025c0 9.754-0.135 10.296-4.606 14.769-4.606 4.606-8.265 5.554-13.684 3.386zM99.581 574.51c55.142-20.051 58.529-21.815 58.529-30.35 0-6.636-2.303-10.432-7.723-12.734-5.69-2.302-4.471-2.709-66.387 19.915-50.129 18.155-53.787 20.189-53.787 28.589 0 2.573 0.677 6.094 1.626 7.855 2.032 3.795 9.213 6.775 13.548 5.827 1.897-0.406 26.284-9.077 54.194-19.103zM654.386 592.665c5.421-2.302 7.723-6.098 7.723-12.734 0-8.4-3.657-10.435-53.786-28.589-61.916-22.624-60.697-22.217-66.388-19.915-5.417 2.302-7.72 6.098-7.72 12.734 0 8.265 4.063 10.57 46.334 25.877 35.632 13.008 67.878 24.523 68.826 24.523 0.135 0 2.438-0.813 5.011-1.896zM259.452 468.156c28.858-13.414 29.671-13.821 32.11-19.648 1.761-4.334 1.626-5.417-1.084-12.734-1.626-4.473-3.658-8.4-4.471-8.671-1.22-0.406-70.316 30.888-72.484 32.788-0.271 0.271 0.542 3.25 1.761 6.501 3.794 10.029 10.568 15.040 17.749 13.279 1.49-0.271 13.413-5.556 26.419-11.515zM471.347 475.744c3.118-3.118 8.671-14.769 7.452-15.852-2.167-1.899-71.264-33.194-72.483-32.788-0.813 0.271-2.844 4.198-4.473 8.671-2.844 7.452-2.844 8.4-1.083 12.869 2.302 5.556 1.896 5.15 28.044 17.613 32.111 15.31 35.906 16.123 42.542 9.487zM238.316 418.297c19.51-9.077 35.497-16.665 35.768-16.8 0.406-0.271-4.742-11.921-13.006-29.263-5.961-12.196-9.213-15.31-16.394-15.040-4.065 0.135-48.774 20.051-55.955 24.929-4.742 3.25-7.045 10.161-5.148 15.443 4.064 10.57 16.935 37.125 18.155 37.125 0.677 0 17.206-7.452 36.581-16.394zM499.53 418.162c10.838-23.44 10.973-23.711 9.213-28.992-0.813-2.577-3.118-5.691-5.15-7.046-7.046-4.743-52.432-25.065-56.089-25.065-7.046 0-10.435 3.115-16.258 15.175-8.265 17.342-13.414 28.992-13.008 29.263 1.49 1.219 71.128 33.194 72.215 33.194 0.813 0 4.876-7.452 9.077-16.529zM359.708 350.69v-27.096h-27.096v54.193h27.096v-27.096zM218.942 292.702c3.523-3.115 4.335-5.146 5.013-10.838 0.542-5.553 0.135-7.723-1.761-9.754-2.439-2.709-4.606-2.709-99.31-2.709h-96.736l0.542 9.348c0.542 9.754 2.71 14.088 8.536 16.529 1.49 0.542 42.542 1.083 91.045 1.083l88.471 0.135 4.2-3.795zM379.491 292.567c49.043-12.057 88.606-46.605 105.812-92.533 12.463-33.059 12.869-67.607 1.219-101.614-16.529-48.64-58.936-85.762-110.556-96.87-15.713-3.254-43.897-3.254-59.612 0-72.077 15.446-122.206 80.070-118.819 152.688 3.116 63.95 46.335 118.685 107.574 136.162 6.503 1.896 15.581 3.931 20.052 4.743 12.465 1.896 41.593 0.542 54.33-2.577zM197.129 241.628c0-0.41-1.626-3.254-3.523-6.369-9.213-14.633-18.29-40.782-21.406-62.322-2.981-20.054-2.71-32.788 1.355-59.749l0.948-6.504-139.955 0.813-3.658 3.657c-3.116 3.254-3.794 5.15-4.2 13.279l-0.542 9.484h53.381l4.606 4.608c6.232 6.23 6.232 11.65 0 17.884l-4.606 4.605h-53.11v81.292h85.355c47.013 0 85.355-0.271 85.355-0.677zM660.754 238.374c4.066-3.521 4.473-4.74 4.879-13.547l0.542-9.622h-157.567l-3.254 7.452c-1.896 4.066-4.876 9.89-6.775 12.873-1.896 2.98-3.386 5.688-3.386 6.098 0 0.406 36.309 0.677 80.612 0.677h80.615l4.334-3.931zM665.633 164.943l-0.406-23.169-4.473-3.928-4.334-3.931h-134.131v11.244c-0.135 10.299-1.083 20.731-3.521 36.583l-0.948 6.365h148.219l-0.406-23.166zM549.386 45.852v-60.968l-16.936-8.4c-9.213-4.608-17.071-8.129-17.342-7.858-1.083 1.219-30.753 67.336-30.753 68.42 0 0.677 2.98 5.421 6.639 10.702 10.567 15.581 19.644 34.278 23.843 49.994l2.441 9.077h32.107v-60.968zM189 68.615c3.116-6.233 8.536-15.717 12.329-21.137 3.658-5.421 6.639-10.161 6.639-10.702 0-0.948-29.807-67.065-30.755-68.149-0.271-0.271-8.129 3.25-17.342 7.858l-16.935 8.4v94.839h40.51l5.555-11.109zM324.073 267.366c-37.394-7.178-70.316-32.107-86.981-66.385-9.484-19.238-11.923-30.35-11.923-53.516 0-23.169 2.439-34.278 11.923-53.519 15.174-31.024 44.709-55.276 78.58-64.489 15.582-4.334 45.387-4.334 60.968 0 33.871 9.213 63.405 33.465 78.58 64.489 9.484 19.241 11.921 30.35 11.921 53.519 0 23.166-2.438 34.278-11.921 53.516-15.175 31.159-45.115 55.682-78.58 64.353-14.362 3.795-38.341 4.743-52.568 2.031zM364.855 240.135c5.959-1.083 15.984-4.74 23.301-8.265 10.977-5.282 14.633-7.858 24.659-18.019 9.754-9.754 12.737-13.953 17.748-24.523 13.821-28.315 13.821-55.412 0-83.727-5.011-10.567-7.994-14.769-17.748-24.523-10.025-10.161-13.682-12.734-24.659-18.019-28.586-13.821-55.412-13.821-83.999 0-10.703 5.146-14.632 7.994-24.522 17.884s-12.736 13.821-17.884 24.523c-6.774 13.953-10.432 28.857-10.432 42.001 0 13.14 3.658 28.044 10.432 41.997 5.148 10.706 7.993 14.633 17.884 24.523s13.819 12.737 24.522 17.884c20.729 10.029 39.561 12.602 60.698 8.265zM120.446 156.408c-6.239-6.233-6.239-11.65 0-17.884 3.391-3.254 5.832-4.608 8.951-4.608 5.968 0 13.563 7.588 13.563 13.55s-7.595 13.55-13.563 13.55c-3.12 0-5.561-1.219-8.951-4.608zM275.269 918.751v-192.893c-10.772 4.297-23.177 6.944-36.702 6.944-41.162 0-73.405-22.653-73.405-51.562 0-28.944 32.243-51.562 73.405-51.562s73.405 22.619 73.405 51.562v209.341l146.811 27.5v-157.848c-10.772 4.297-23.179 6.944-36.702 6.944-41.161 0-73.404-22.653-73.404-51.562 0-28.943 32.243-51.562 73.404-51.562s73.404 22.619 73.404 51.562v244.386l-220.215-41.249z" />
<glyph unicode="&#xe915;" glyph-name="radio-on" d="M512 960c282.774 0 512-229.23 512-512 0-282.774-229.226-512-512-512-282.77 0-512 229.226-512 512 0 282.77 229.23 512 512 512zM511.988 256.002c106.039 0 192.001 85.961 192.001 192s-85.962 192-192.001 192c-106.038 0-192-85.962-192-192s85.962-192 192-192z" />
<glyph unicode="&#xe916;" glyph-name="chevron-right1" d="M414.165 140.502l256 256c16.683 16.683 16.683 43.691 0 60.331l-256 256c-16.683 16.683-43.691 16.683-60.331 0s-16.683-43.691 0-60.331l225.835-225.835-225.835-225.835c-16.683-16.683-16.683-43.691 0-60.331s43.691-16.683 60.331 0z" />
<glyph unicode="&#xe917;" glyph-name="minus" d="M213.333 384h597.333c23.552 0 42.667 19.115 42.667 42.667s-19.115 42.667-42.667 42.667h-597.333c-23.552 0-42.667-19.115-42.667-42.667s19.115-42.667 42.667-42.667z" />
<glyph unicode="&#xe918;" glyph-name="plus" d="M213.333 384h256v-256c0-23.552 19.115-42.667 42.667-42.667s42.667 19.115 42.667 42.667v256h256c23.552 0 42.667 19.115 42.667 42.667s-19.115 42.667-42.667 42.667h-256v256c0 23.552-19.115 42.667-42.667 42.667s-42.667-19.115-42.667-42.667v-256h-256c-23.552 0-42.667-19.115-42.667-42.667s19.115-42.667 42.667-42.667z" />
<glyph unicode="&#xe919;" glyph-name="bass" horiz-adv-x="913" d="M842.088 883.854c-27.9 25.973-63.408 41.838-101.030 45.141-37.62 3.303-75.258-6.14-107.094-26.869-3.285 5.199-7.088 10.037-11.347 14.438-95.135 88.884-216.537-61.311-113.094-139.588l-26.297-27.98c-76.103 106.943-224.664-17.432-137.147-114.757 5.073-5.095 10.73-9.545 16.849-13.257l-27.717-29.494c-6.991 12.050-16.619 22.284-28.127 29.906-11.51 7.622-24.59 12.424-38.218 14.029s-27.436-0.028-40.343-4.771c-12.907-4.746-24.565-12.473-34.062-22.581-9.497-10.104-16.576-22.318-20.684-35.679s-5.133-27.512-2.996-41.347c2.137-13.832 7.379-26.975 15.317-38.397s18.355-20.818 30.438-27.449l-29.535-31.428c-6.582 12.803-16.062 23.82-27.653 32.131s-24.958 13.677-38.989 15.656c-14.032 1.976-28.323 0.506-41.686-4.29-13.363-4.793-25.412-12.775-35.146-23.281s-16.871-23.228-20.819-37.116c-3.948-13.888-4.592-28.536-1.878-42.728s8.705-27.518 17.478-38.87c8.773-11.353 20.073-20.405 32.961-26.403-11.72-16.174-17.092-36.236-15.063-56.248l14.596-136.519c1.429-13.755 6.294-26.906 14.128-38.192s18.375-20.331 30.613-26.267l204.143-99.818c15.169-7.348 32.217-9.634 48.729-6.534s31.65 11.427 43.263 23.804c44.411 48.856 100.263 85.382 162.304 106.142 22.832 6.318 43.376 19.273 59.132 37.287s26.046 40.315 29.619 64.188l57.388 389.914c0.728 4.024 2.812 7.661 5.892 10.279 3.083 2.618 6.966 4.049 10.973 4.043 44.076 2.585 85.407 22.675 115.158 55.974 30.604 34.174 46.722 79.32 44.837 125.582-1.882 46.263-21.617 89.886-54.895 121.349zM521.202 813.034c-9.955 10.428-15.482 24.44-15.39 39 0.094 14.56 5.801 28.497 15.886 38.792s23.737 16.121 37.999 16.215c14.264 0.094 27.988-5.55 38.204-15.712 5.793-6.274 11.557-11.927 2.488-17.651l-65.982-70.218c-4.86 2.474-9.316 5.704-13.204 9.574zM370.796 659.473c-56.436 63.943 48.095 138.84 87.026 62.489l-69.734-74.207c-6.462 2.709-12.338 6.692-17.292 11.718zM220.492 506.050c-57.724 67.598 53.448 139.92 89.061 58.13l-67.337-71.655c-8.203 2.657-15.656 7.295-21.724 13.525zM70.069 430.664c6.757 6.794 15.14 11.66 24.313 14.112s18.817 2.408 27.968-0.13c9.151-2.538 17.49-7.481 24.186-14.336s11.514-15.382 13.974-24.734l-63.802-67.891c-9.418 2.214-18.087 6.952-25.117 13.724-7.029 6.769-12.165 15.332-14.878 24.8-2.713 9.471-2.906 19.506-0.559 29.076 2.347 9.573 7.15 18.332 13.913 25.379zM826.368 661.042c-23.621-26.452-56.445-42.413-91.446-44.472-12.020-0.465-23.508-5.17-32.513-13.309-9.003-8.139-14.967-19.215-16.871-31.34l-57.391-389.895c-2.308-15.662-8.682-30.41-18.451-42.712-11.84-14.427-27.701-24.828-45.477-29.818-67.886-22.484-129.032-62.268-177.667-115.587-6.515-6.999-15.025-11.721-24.321-13.495s-18.902-0.509-27.452 3.614l-204.128 99.801c-6.864 3.327-12.776 8.397-17.17 14.723-4.394 6.329-7.122 13.705-7.923 21.418l-14.596 136.519c-0.259 9.532 1.786 18.986 5.952 27.521s10.328 15.894 17.94 21.424c-0.123 0.102 511.039 543.662 511.006 543.794 126.91 130.762 317.672-47.829 200.508-188.186z" />
<glyph unicode="&#xe91a;" glyph-name="piano" horiz-adv-x="996" d="M883.669 931.702c-10.954 1.679-22.079 1.217-33.124 1.279-238.293 0-476.598 0-714.889 0-37.379 1.063-74.695-15.947-98.238-45.021-18.073-21.771-28.134-49.935-28.041-78.223-0.031-247.549 0-495.101-0.015-742.653-0.632-35.743 15.315-71.305 42.463-94.586 22.094-19.365 51.337-30.29 80.719-30.197 244.484-0.017 488.97-0.017 733.456 0 27.964-0.108 55.788 9.737 77.483 27.378 28.626 22.881 46.006 59.056 45.776 95.727 0.031 247.598 0 495.195 0.014 742.791 0.401 28.442-9.384 56.884-27.378 78.932-19.228 24.005-47.764 40.306-78.225 44.574zM927.212 867.884c14.805-15.469 23.387-36.716 23.265-58.148 0.017-190.498 0-380.994 0-571.492-0.168-30.737 0.356-61.505-0.247-92.228 0.603-26.317 0.080-52.662 0.265-79.010 0.338-18.967-5.916-37.993-17.582-52.969-15.329-20.107-40.058-32.711-65.374-32.927-40.044 0-80.088 0.031-120.132-0.014-0.060 31.738-0.014 63.462-0.014 95.186-0.031 95.033-0.014 190.052-0.014 285.084 15.775 0.401 32.478-1.943 47.161 5.222 8.937 4.022 17.687 12.004 17.55 22.525 0.014 168.343-0.017 336.698 0.014 505.040 18.475-0.015 36.964 0.016 55.435-0.015 22.357-0.216 44.342-10.030 59.674-26.254zM654.916 894.154c0.046-168.341-0.014-336.697 0.031-505.040-0.171-10.94 9.213-19.012 18.503-22.972 13.022-6.056 27.642-4.622 41.572-4.776 0-95.033 0.014-190.052-0.017-285.084 0.017-31.724 0.046-63.448-0.014-95.172-55.268 0.125-110.564-0.23-165.831 0.185-11.864-0.37-23.743 0.125-35.607 0.293l-0.447 1.064c0.202 31.201 0 62.416 0.094 93.631-0.031 95.019-0.017 190.052-0.017 285.084 15.423 0.415 31.693-1.88 46.177 4.776 9.29 3.945 18.611 11.986 18.534 22.881 0.017 168.385-0.031 336.759 0.017 505.131 25.668 0 51.337 0 77.005 0zM420.725 894.154c0.046-168.341-0.017-336.697 0.031-505.040-0.233-9.227 6.778-16.731 14.404-20.924 13.807-8.135 30.29-6.81 45.668-6.824 0-95.033 0.017-190.066-0.014-285.084 0-31.693 0.077-63.4-0.031-95.095-11.292-0.014-22.633-0.538-33.866 0.833-10.2-1.434-20.523-0.74-30.8-0.91-46.205-0.014-92.413 0.031-138.62-0.014-0.092 31.724-0.031 63.462-0.031 95.186-0.031 95.033-0.015 190.052-0.015 285.084 14.389 0.245 29.505-1.479 42.987 4.73 9.335 3.942 18.751 12.018 18.642 22.972 0.014 168.371-0.031 336.728 0.014 505.085 27.21-0.015 54.42 0 81.63 0zM181.909 894.154c0.031-165.799 0-331.597 0.015-497.397 0.139-5.407-0.709-11.218 1.941-16.193 4.145-8.366 12.773-13.375 21.324-16.239 12.85-4.346 26.593-2.588 39.905-2.958 0-95.033 0.015-190.052-0.016-285.084 0.015-31.724 0.046-63.448 0-95.172-38.534 0.031-77.068-0.046-115.602 0.048-34.081 0.74-65.928 24.542-76.698 56.821-6.302 16.734-4.33 34.807-4.622 52.278 0.17 18.597-0.339 37.194 0.247 55.774-0.601 40.445-0.077 80.967-0.247 121.444 0 173.562 0 347.127 0 520.692 0.185 15.916-1.31 32.325 4.129 47.64 10.169 32.479 41.585 56.823 75.635 58.24 17.996 0.247 35.992 0.031 53.988 0.108z" />
<glyph unicode="&#xe91b;" glyph-name="other" horiz-adv-x="918" d="M306.023 832.126v-597.969c-29.939 13.323-64.418 21.525-102.008 21.525-114.402 0-204.015-70.222-204.015-159.839 0-89.727 89.614-159.843 204.015-159.843s204.017 70.116 204.017 159.843v648.957l408.029 85.249v-489.329c-29.94 13.319-64.417 21.525-102.008 21.525-114.402 0-204.016-70.225-204.016-159.843 0-89.724 89.614-159.843 204.016-159.843s204.016 70.119 204.016 159.843v757.598l-612.046-127.874z" />
<glyph unicode="&#xe91c;" glyph-name="drum-set" d="M130.311 958.238c-6.663-2.743-10.974-9.21-12.15-17.833-0.98-6.271-1.763-7.838-4.311-7.251-1.764 0.588-10.974 3.919-20.772 7.251-29.198 10.386-50.166 8.035-68.195-7.838-13.717-11.954-19.008-24.495-19.204-44.875-0.196-21.36 12.542-41.544 32.53-51.538 3.331-1.568 22.34-9.014 42.72-16.265l36.645-13.325v-289.044l-36.645-0.783c-32.726-0.588-37.82-0.98-45.855-4.703-11.758-5.488-24.495-18.225-29.982-29.984-4.115-9.014-4.115-9.994-4.115-141.288s0-132.274 4.115-141.288c5.487-11.759 18.224-24.496 29.982-29.984 8.426-3.918 12.346-4.113 71.33-4.701l62.12-0.59v-136.78l-36.841-18.617c-43.112-21.75-46.247-25.083-38.604-41.348 3.135-6.466 9.798-10.779 16.657-10.779 1.96 0 20.38 8.428 40.956 18.617l37.428 18.617 37.429-18.617c20.575-10.189 38.998-18.617 40.955-18.617 2.155 0 6.076 0.98 8.819 2.353 5.683 2.548 9.604 10.386 40.172 77.405l16.265 35.862 6.076-4.901c33.509-27.238 73.484-46.246 116.792-55.259 22.928-4.703 71.134-4.703 94.062 0 43.308 9.014 83.283 28.021 116.792 55.259l6.076 4.901 16.265-35.862c30.571-67.018 34.489-74.857 40.172-77.405 2.743-1.373 6.663-2.353 8.819-2.353 1.96 0 20.38 8.428 40.955 18.617l37.43 18.617 37.232-18.617c20.38-10.189 38.997-18.617 41.348-18.617 12.737 0 22.535 15.287 17.44 27.436-2.155 5.096-7.838 8.621-39.387 24.496l-37.037 18.812v175.972l62.315 0.588c58.79 0.59 62.708 0.785 71.136 4.703 11.756 5.488 24.493 18.225 29.981 29.984 3.918 8.621 4.116 11.366 4.116 82.5s-0.197 73.877-4.116 82.498c-5.488 11.759-18.225 24.496-29.981 29.984-8.036 3.723-13.132 4.116-45.661 4.703l-36.84 0.783v367.429l36.84 13.325c20.185 7.251 39.39 14.697 42.525 16.265 19.988 9.994 32.724 30.178 32.529 51.538-0.197 20.38-5.488 32.922-19.205 44.875-18.027 15.873-38.997 18.224-68.194 7.838-9.604-3.331-19.010-6.663-20.773-7.251-2.548-0.784-3.333 0.98-4.311 7.642-1.568 11.954-10.779 20.184-20.773 18.42-4.508-0.588-9.014-3.331-12.542-7.055-4.703-5.291-5.291-7.447-5.291-20.38v-14.305l-36.645-13.325c-20.38-7.251-40.172-14.893-44.093-17.049-18.42-9.21-31.354-30.374-31.156-51.146 0.195-19.988 5.683-32.726 19.202-44.483 18.030-15.873 38.997-18.225 68.196-7.838 9.799 3.331 19.205 6.663 21.163 7.251 3.135 0.98 3.333-8.231 3.333-175.582v-176.56h-161.080l-13.327 12.344c-25.083 23.32-60.355 43.503-93.474 53.694l-18.222 5.486v85.243h8.816c7.448 0 9.211-0.783 10.584-4.506 7.053-18.225 20.77-42.525 28.219-49.186 14.697-13.522 34.097-18.812 52.517-14.109 18.42 4.898 89.554 39.192 98.372 47.618 14.307 13.912 20.773 33.312 17.245 51.929-1.568 8.624-29.981 72.309-54.282 121.888-12.344 25.083-40.17 38.409-66.233 31.55-5.881-1.568-28.611-11.17-50.559-21.556-43.895-20.576-52.909-27.239-60.553-44.874-3.33-7.251-4.506-13.719-4.311-23.713 0-12.149 0.98-16.265 9.014-34.097 5.096-10.974 9.211-20.575 9.211-20.968s-25.476-0.785-56.83-0.785c-31.159 0-56.83 0.393-56.83 0.785s4.116 9.994 9.211 20.968c8.034 17.832 9.014 21.948 9.014 34.097 0.197 9.994-0.98 16.462-4.311 23.713-7.643 17.635-16.657 24.298-60.553 44.874-21.948 10.386-44.678 19.988-50.559 21.556-26.061 6.859-53.889-6.467-66.233-31.55-24.3-49.579-52.714-113.265-54.282-121.888-3.527-18.617 2.94-38.017 17.245-51.929 8.621-8.231 79.365-42.525 97.785-47.423 18.42-4.703 38.407 0.393 53.107 13.914 7.446 6.661 21.163 30.961 28.219 49.186 1.37 3.723 3.133 4.506 10.581 4.506h8.819v-43.11c0-34.684-0.59-43.113-2.548-43.113-8.624 0-51.539-17.44-68.196-27.826-4.898-2.938-9.601-5.486-10.189-5.486-0.393 0-1.568 2.155-2.155 4.703-2.353 9.209-16.265 24.103-28.023 29.786l-11.366 5.683-163.627 1.175v137.37c0 129.725 0.196 137.172 3.527 136.192 1.764-0.588 11.366-3.919 20.968-7.251 29.198-10.386 50.166-8.034 68.195 7.838 13.717 11.954 19.007 24.495 19.202 44.875 0.197 21.36-12.542 41.544-32.529 51.538-3.135 1.568-22.34 9.014-42.524 16.265l-36.841 13.325v14.501c0 14.109-0.196 14.893-6.663 21.36-6.663 6.663-11.953 8.034-19.792 4.899zM145.008 880.049c79.756-29.002 84.655-31.55 84.655-43.895 0-9.602-3.331-15.089-11.17-18.42-8.23-3.331-6.467-3.919-96.021 28.806-72.506 26.259-77.797 29.198-77.797 41.348 0 3.723 0.98 8.818 2.352 11.366 2.939 5.487 13.325 9.798 19.596 8.427 2.743-0.588 38.016-13.129 78.385-27.631zM947.471 906.308c7.838-3.331 11.169-8.818 11.169-18.42 0-12.15-5.291-15.089-77.797-41.348-89.554-32.726-87.791-32.138-96.020-28.806-7.838 3.331-11.171 8.818-11.171 18.42 0 11.954 5.881 15.285 67.021 37.429 51.536 18.812 98.175 35.469 99.547 35.469 0.195 0 3.528-1.176 7.251-2.744zM376.242 726.219c41.74-19.401 42.915-19.988 46.443-28.415 2.548-6.271 2.353-7.838-1.568-18.42-2.35-6.468-5.291-12.149-6.466-12.542-1.765-0.588-101.705 44.678-104.841 47.423-0.393 0.39 0.785 4.702 2.548 9.405 5.486 14.501 15.284 21.752 25.671 19.204 2.155-0.392 19.4-8.034 38.212-16.657zM682.725 737.193c4.508-4.507 12.542-21.359 10.779-22.926-3.135-2.745-103.075-48.011-104.841-47.423-1.175 0.393-4.113 6.073-6.466 12.542-4.116 10.776-4.116 12.149-1.568 18.615 3.33 8.036 2.743 7.448 40.565 25.476 46.443 22.144 51.929 23.319 61.53 13.717zM345.673 654.104c28.219-13.129 51.341-24.103 51.734-24.298 0.588-0.393-6.858-17.245-18.812-42.328-8.624-17.637-13.327-22.143-23.713-21.753-5.878 0.197-70.546 29.004-80.93 36.057-6.861 4.703-10.191 14.697-7.448 22.34 5.881 15.284 24.496 53.694 26.261 53.694 0.978 0 24.886-10.779 52.909-23.713zM723.485 653.909c15.677-33.902 15.874-34.294 13.327-41.935-1.175-3.723-4.508-8.231-7.446-10.191-10.191-6.858-75.837-36.252-81.13-36.252-10.189 0-15.087 4.508-23.515 21.948-11.952 25.083-19.4 41.935-18.812 42.328 2.158 1.763 102.88 48.011 104.448 48.011 1.178 0 7.056-10.779 13.129-23.908zM521.255 556.32v-39.192h-39.192v78.385h39.192v-39.192zM317.65 472.449c5.096-4.508 6.271-7.446 7.251-15.677 0.783-8.034 0.195-11.169-2.548-14.109-3.528-3.918-6.663-3.918-143.639-3.918h-139.917l0.784 13.519c0.784 14.109 3.919 20.38 12.346 23.908 2.156 0.785 61.532 1.568 131.686 1.568l127.962 0.195 6.076-5.486zM549.864 472.254c70.939-17.442 128.158-67.411 153.047-133.842 18.027-47.816 18.617-97.785 1.763-146.973-23.906-70.349-85.243-124.043-159.902-140.112-22.733-4.703-63.493-4.703-86.223 0-104.253 22.34-176.757 115.814-171.859 220.85 4.508 92.494 67.018 171.661 155.592 196.942 9.406 2.743 22.538 5.681 29.004 6.858 18.027 2.743 60.16 0.783 78.58-3.723zM286.101 398.572c0-0.588-2.353-4.703-5.096-9.211-13.324-21.163-26.456-58.985-30.961-90.141-4.311-29.004-3.92-47.423 1.96-86.421l1.37-9.406-202.428 1.178-5.291 5.291c-4.507 4.703-5.487 7.446-6.075 19.202l-0.784 13.719h77.209l6.663 6.661c9.014 9.016 9.014 16.855 0 25.868l-6.663 6.663h-76.817v117.577h123.456c67.999 0 123.456-0.393 123.456-0.98zM956.679 393.869c5.881-5.096 6.468-6.858 7.056-19.597l0.783-13.912h-227.903l-4.703 10.776c-2.743 5.878-7.053 14.307-9.796 18.617-2.745 4.311-4.901 8.231-4.901 8.819s52.519 0.98 116.597 0.98h116.597l6.271-5.683zM963.735 287.659l-0.588-33.512-6.468-5.681-6.271-5.683h-194.002v16.265c-0.195 14.892-1.568 29.981-5.093 52.909l-1.373 9.211h214.382l-0.588-33.509zM795.599 115.407v-88.183l-24.496-12.149c-13.324-6.663-24.691-11.756-25.083-11.366-1.568 1.765-44.483 97.395-44.483 98.962 0 0.98 4.313 7.838 9.604 15.479 15.284 22.535 28.414 49.579 34.489 72.311l3.525 13.129h46.443v-88.183zM274.342 148.329c4.508-9.014 12.347-22.73 17.832-30.569 5.293-7.838 9.604-14.699 9.604-15.482 0-1.373-43.113-97.002-44.483-98.57-0.393-0.39-11.759 4.703-25.084 11.366l-24.495 12.149v137.175h58.593l8.034-16.069z" />
<glyph unicode="&#xe91d;" glyph-name="Snap" d="M353.104 497.549l-353.104 157.679v-381.423l353.104 157.68v66.064zM448.691 441.158c13.789 12.899 13.789 33.814 0 46.714l-224.712 210.218c-13.79 12.9-36.147 12.9-49.937 0s-13.789-33.815 0-46.715l199.747-186.86-199.747-186.861c-13.789-12.896-13.789-33.811 0-46.714 13.79-12.899 36.147-12.899 49.937 0l224.712 210.218zM317.793 431.485h105.932v66.064h-105.932v-66.064zM670.896 431.485l353.104-157.68v381.423l-353.104-157.679v-66.064zM610.618 487.872c-13.789-12.899-13.789-33.814 0-46.714l224.717-210.218c13.789-12.899 36.144-12.899 49.936 0 13.789 12.902 13.789 33.818 0 46.714l-199.747 186.861 199.747 186.86c13.789 12.9 13.789 33.815 0 46.715-13.792 12.9-36.147 12.9-49.936 0l-224.717-210.218zM706.208 497.549h-70.621v-66.064h70.621v66.064zM496 960h64v-68.267h-64v68.267zM496 823.467h64v-68.267h-64v68.267zM496 686.933h64v-68.267h-64v68.267zM496 550.4h64v-68.267h-64v68.267zM496 413.866h64v-68.267h-64v68.267zM496 277.334h64v-68.267h-64v68.267zM496 140.8h64v-68.267h-64v68.267zM496 4.266h64v-68.267h-64v68.267z" />
<glyph unicode="&#xe91e;" horiz-adv-x="1117" d="M124.121 897.939h868.848v-651.636h-868.848v651.636z" />
<glyph unicode="&#xe91f;" horiz-adv-x="1117" d="M124.121 897.939h155.152v-651.636h-155.152v651.636z" />
<glyph unicode="&#xe920;" horiz-adv-x="1117" d="M961.939 556.606c17.138 0 31.030 13.892 31.030 31.030s-13.892 31.030-31.030 31.030v-62.061zM505.574 609.578c-12.117-12.117-12.117-31.766 0-43.883l197.477-197.477c12.117-12.117 31.763-12.117 43.883 0 12.117 12.12 12.117 31.766 0 43.883l-175.535 175.535 175.535 175.534c12.117 12.118 12.117 31.765 0 43.884-12.12 12.118-31.766 12.118-43.883 0l-197.477-197.476zM961.939 618.667h-434.424v-62.061h434.424v62.061z" />
<glyph unicode="&#xe921;" horiz-adv-x="1117" d="M279.273 960h103.076v-775.758h-103.076v775.758z" />
<glyph unicode="&#xe922;" horiz-adv-x="1147" d="M0 878.080h1146.88v-860.16h-1146.88v860.16z" />
<glyph unicode="&#xe923;" horiz-adv-x="1147" d="M0 878.080h204.8v-860.16h-204.8v860.16z" />
<glyph unicode="&#xe924;" horiz-adv-x="1147" d="M1105.92 427.52c22.622 0 40.96 18.338 40.96 40.96s-18.338 40.96-40.96 40.96v-81.92zM503.517 497.443c-15.995-15.995-15.995-41.931 0-57.926l260.669-260.669c15.995-15.995 41.927-15.995 57.926 0 15.995 15.999 15.995 41.931 0 57.926l-231.707 231.707 231.707 231.705c15.995 15.996 15.995 41.93 0 57.926-15.999 15.996-41.931 15.996-57.926 0l-260.669-260.668zM1105.92 509.44h-573.44v-81.92h573.44v81.92z" />
<glyph unicode="&#xe925;" horiz-adv-x="1147" d="M204.8 960h136.061v-1024h-136.061v1024z" />
<glyph unicode="&#xe926;" glyph-name="search" horiz-adv-x="953" d="M935.992 72.746l-184.55 184.627c138.088 184.535 100.437 446.074-84.099 584.163-184.532 138.089-446.072 100.436-584.161-84.098s-100.436-446.075 84.098-584.163c148.233-110.924 351.83-110.924 500.063 0l184.627-184.627c23.202-23.199 60.819-23.199 84.021 0 23.199 23.202 23.199 60.819 0 84.021v0.078zM418.851 208.91c-164.005 0-296.956 132.951-296.956 296.956s132.951 296.958 296.956 296.958c164.006 0 296.956-132.951 296.956-296.958-0.173-163.932-133.021-296.78-296.956-296.956z" />
<glyph unicode="&#xe927;" glyph-name="Star" horiz-adv-x="1078" d="M538.947 960l120.999-372.403h391.572l-316.788-230.156 121.004-372.407-316.788 230.157-316.785-230.157 121.001 372.407-316.785 230.156h391.568l121.001 372.403z" />
<glyph unicode="&#xe928;" glyph-name="NL2" horiz-adv-x="841" d="M517.488 954.194c-21.561-63.713-33.423-129.215-35.588-196.504-2.034-45.151 7.523-87.611 28.667-127.382 10.575-15.821 24.746-27.343 42.507-34.561 15.566-2.96 30.064-0.328 43.496 7.899 11.532 8.887 21.748 19.091 30.645 30.611 14.183 25.733 27.034 52.064 38.553 78.996 56.651-41.179 98.256-92.613 126.424-149.408 4.746-9.299 9.025-18.818 12.922-28.694 89.401-219.919-7.672-504.25-205.375-592.115h-377.151c-449.035 345.274-136.294 889.385 294.897 1011.156z" />
<glyph unicode="&#xe929;" glyph-name="NL1" horiz-adv-x="638" d="M328.715 960c6.695 0 13.391 0 20.085 0 9.593-5.444 13.611-13.777 12.052-25-4.73-43.646-5.064-87.312-1.004-131 4.84-37.622 17.562-72.288 38.162-104 7.366-10 14.729-20 22.094-30 34.145-38 68.291-76 102.435-114 71.502-87.118 110-187.118 115.491-300-0.781-118.571-48.987-212.236-144.615-281.001-28.363-17.463-58.491-30.46-90.385-38.999-6.695 0-13.391 0-20.085 0-8.988 4.899-13.006 12.564-12.052 23.001 8.362 40.944 13.718 82.282 16.069 123.999-0.095 50.058-13.151 96.391-39.167 139.001-38.66 59.614-82.178 115.614-130.555 168-43.483 55.27-73.611 117.27-90.384 186-20.321 93.052-6.261 180.386 42.179 262 39.029 59.211 92.256 99.877 159.679 122zM79.656 398c13.388 2.499 23.096-2.168 29.123-14-5.473-43.48 5.241-82.146 32.137-116 21.511-22.216 41.597-45.55 60.256-70 29.427-44.534 40.808-93.205 34.146-145.996-9.737-52.342-38.862-89.34-87.372-111.002-17.911-3.513-27.953 3.82-30.128 22 6.614 29.531 4.941 58.533-5.022 87.001-7.024 13.989-15.058 27.325-24.103 39.999-21.616 24.182-41.701 49.514-60.256 75.997-35.018 58.095-37.696 117.43-8.034 178.002 15.618 22.554 35.368 40.554 59.252 53.999z" />
<glyph unicode="&#xe92a;" horiz-adv-x="841" d="M517.488 954.194c-21.561-63.713-33.423-129.215-35.588-196.504-2.034-45.151 7.523-87.611 28.667-127.382 10.575-15.821 24.746-27.343 42.507-34.561 15.566-2.96 30.064-0.328 43.496 7.899 11.532 8.887 21.748 19.091 30.645 30.611 14.183 25.733 27.034 52.064 38.553 78.996 56.651-41.179 98.256-92.613 126.424-149.408 4.746-9.299 9.025-18.818 12.922-28.694 89.401-219.919-7.672-504.25-205.375-592.115h-377.151c-449.035 345.274-136.294 889.385 294.897 1011.156z" />
<glyph unicode="&#xe92b;" horiz-adv-x="841" d="M584.125 363.12c0-20.825-4.11-40.829-12.331-60.012s-18.908-37.815-32.061-55.901c-13.153-17.537-27.951-34.527-44.392-50.968-16.441-16.443-32.609-32.063-48.502-46.857-8.221-7.672-17.264-16.445-27.129-26.311-9.317-9.315-18.359-18.906-27.128-28.771s-16.716-19.181-23.84-27.946c-6.577-8.223-10.687-15.077-12.331-20.556h244.978v-102.759h-379.799c-1.096 6.029-1.644 13.702-1.644 23.017s0 15.895 0 19.731c0 26.311 4.11 50.421 12.331 72.345 8.769 21.924 20.004 42.198 33.705 60.836 13.702 19.181 29.047 36.986 46.036 53.431 17.538 16.445 34.801 32.883 51.791 49.325 13.154 12.605 25.485 24.388 36.994 35.349 11.509 11.509 21.648 22.47 30.417 32.883 8.769 10.961 15.62 21.648 20.552 32.061 4.933 10.961 7.399 21.922 7.399 32.883 0 24.114-6.851 41.104-20.552 50.968s-30.691 14.798-50.968 14.798c-14.798 0-28.773-2.466-41.926-7.399-12.605-4.384-24.389-9.865-35.349-16.441-10.413-6.029-19.456-12.332-27.128-18.908-7.673-6.029-13.427-10.961-17.264-14.798l-60.833 85.496c24.114 22.47 52.065 40.829 83.852 55.079 32.335 14.798 66.862 22.196 103.581 22.196 33.431 0 62.204-3.837 86.319-11.509s43.844-18.634 59.189-32.883c15.893-13.701 27.402-30.69 34.527-50.968 7.672-19.73 11.509-42.2 11.509-67.411z" />
<glyph unicode="&#xe92c;" glyph-name="mail-dot-ru" d="M494.293 735.275c78.251 0 151.808-34.603 205.824-88.747v-0.171c0 25.984 17.493 45.568 41.771 45.568h6.187c38.016 0 45.781-35.925 45.781-47.317l0.213-404.267c-2.688-26.496 27.307-40.149 43.904-23.168 64.896 66.731 142.592 342.955-40.363 503.040-170.496 149.205-399.232 124.629-520.917 40.747-129.323-89.216-212.096-286.635-131.669-472.064 87.637-202.24 338.389-262.485 487.424-202.411 75.477 30.507 110.336-71.509 31.957-104.832-118.443-50.517-448.085-45.397-602.027 221.355-104.064 180.096-98.517 497.024 177.408 661.205 211.072 125.568 489.387 90.795 657.152-84.437 175.403-183.211 165.205-526.251-5.931-659.669-77.483-60.587-192.683-1.579-191.915 86.656l-0.811 28.928c-53.973-53.589-125.781-84.821-204.032-84.821-154.667 0-290.688 136.064-290.688 290.645 0 156.117 136.064 293.76 290.731 293.76zM688.896 452.693c-5.845 113.195-89.856 181.291-191.317 181.291h-3.84c-117.12 0-182.101-92.117-182.101-196.693 0-117.205 78.592-191.189 181.589-191.189 114.901 0 190.464 84.181 195.925 183.723z" />
<glyph unicode="&#xe92d;" glyph-name="gmail" d="M1024 768v-640c0-36.267-27.733-64-64-64h-64v580.821l-384-275.755-384 275.755v-580.821h-64c-36.309 0-64 27.733-64 64v640c0 18.133 6.912 34.133 18.389 45.568 11.477 11.605 27.52 18.432 45.611 18.432h21.333l426.667-309.333 426.667 309.333h21.333c18.133 0 34.133-6.912 45.611-18.432 11.52-11.435 18.389-27.435 18.389-45.568z" />
<glyph unicode="&#xe92e;" glyph-name="vk" d="M669.184 960h-314.368c-286.891 0-354.816-67.925-354.816-354.816v-314.368c0-286.891 67.925-354.816 354.816-354.816h314.368c286.891 0 354.816 67.925 354.816 354.816v314.368c0 286.891-68.651 354.816-354.816 354.816zM826.709 229.419h-74.411c-28.16 0-36.864 22.4-87.467 73.685-44.075 42.667-63.573 48.427-74.411 48.427-15.189 0-19.541-4.352-19.541-25.301v-67.2c0-18.091-5.76-28.928-53.461-28.928-78.763 0-166.229 47.701-227.627 136.619-92.501 130.048-117.845 227.627-117.845 247.851 0 10.837 4.352 20.949 25.301 20.949h74.411c18.773 0 26.027-8.661 33.28-28.885 36.821-106.24 98.261-199.467 123.563-199.467 9.387 0 13.739 4.352 13.739 28.16v109.909c-2.901 50.603-29.653 54.912-29.653 72.96 0 8.704 7.253 17.365 18.773 17.365h117.077c15.915 0 21.675-8.661 21.675-27.435v-148.181c0-15.872 7.253-21.675 11.563-21.675 9.387 0 17.365 5.803 34.688 23.125 53.504 59.989 91.776 152.491 91.776 152.491 5.077 10.837 13.739 20.949 32.555 20.949h74.411c22.4 0 27.477-11.52 22.4-27.435-9.387-43.392-100.437-171.989-100.437-171.989-7.936-13.013-10.837-18.773 0-33.28 7.936-10.837 33.963-33.237 51.328-53.461 31.787-36.139 56.32-66.475 62.848-87.467 7.253-20.907-3.627-31.744-24.533-31.787z" />
<glyph unicode="&#xe92f;" glyph-name="google" d="M522.24 521.173v-175.573h290.389c-11.733-75.307-87.723-220.757-290.389-220.757-174.72 0-317.397 144.597-317.397 323.157s142.72 323.157 317.397 323.157c99.413 0 166.016-42.197 204.16-78.891l138.837 133.888c-89.173 83.243-204.8 133.845-342.997 133.845-283.093 0-512-228.907-512-512s228.907-512 512-512c295.509 0 491.52 207.744 491.52 500.309 0 33.621-3.627 59.307-8.064 84.864z" />
<glyph unicode="&#xe931;" glyph-name="inst" d="M511.993 926.753c-130.019 0-146.334-0.569-197.4-2.892-50.966-2.334-85.754-10.403-116.194-22.242-31.487-12.228-58.197-28.586-84.807-55.206-26.63-26.61-42.987-53.321-55.255-84.799-11.869-30.451-19.948-65.25-22.241-116.198-2.284-51.067-2.882-67.393-2.882-197.416s0.578-146.289 2.892-197.358c2.344-50.966 10.413-85.756 22.242-116.195 12.238-31.488 28.594-58.2 55.214-84.809 26.6-26.631 53.309-43.030 84.777-55.256 30.46-11.842 65.258-19.909 116.214-22.243 51.065-2.326 67.373-2.893 197.381-2.893 130.026 0 146.293 0.567 197.358 2.893 50.966 2.333 85.797 10.401 116.253 22.243 31.477 12.226 58.149 28.624 84.747 55.256 26.631 26.609 42.99 53.321 55.256 84.798 11.769 30.449 19.847 65.251 22.243 116.198 2.293 51.065 2.893 67.343 2.893 197.365s-0.6 146.339-2.893 197.406c-2.395 50.967-10.474 85.757-22.243 116.197-12.266 31.488-28.624 58.199-55.256 84.809-26.628 26.631-53.259 42.988-84.776 55.206-30.519 11.839-65.328 19.908-116.293 22.242-51.065 2.324-67.321 2.892-197.38 2.892h0.15zM469.047 840.478c12.745 0.020 26.968 0 42.946 0 127.824 0 142.972-0.459 193.452-2.753 46.676-2.135 72.009-9.934 88.883-16.487 22.341-8.677 38.272-19.050 55.018-35.807 16.753-16.756 27.125-32.715 35.825-55.057 6.55-16.856 14.362-42.19 16.486-88.869 2.293-50.468 2.79-65.63 2.79-193.396s-0.497-142.928-2.79-193.397c-2.136-46.676-9.936-72.013-16.486-88.869-8.678-22.341-19.072-38.25-35.825-54.996-16.757-16.757-32.666-27.129-55.018-35.807-16.856-6.583-42.207-14.362-88.883-16.497-50.469-2.293-65.627-2.79-193.452-2.79-127.832 0-142.983 0.497-193.45 2.79-46.677 2.154-72.010 9.955-88.896 16.508-22.341 8.678-38.299 19.050-55.055 35.807s-27.128 32.673-35.825 55.025c-6.553 16.856-14.362 42.189-16.487 88.869-2.294 50.469-2.753 65.631-2.753 193.477s0.459 142.928 2.753 193.396c2.135 46.678 9.934 72.012 16.487 88.888 8.677 22.342 19.070 38.301 35.825 55.057s32.714 27.129 55.055 35.826c16.876 6.583 42.219 14.363 88.896 16.507 44.164 1.995 61.277 2.593 150.504 2.693v-0.12zM767.539 760.985c-31.715 0-57.45-25.703-57.45-57.43 0-31.717 25.735-57.45 57.45-57.45 31.718 0 57.45 25.733 57.45 57.45s-25.732 57.45-57.45 57.45v-0.020zM511.993 693.86c-135.771 0-245.852-110.085-245.852-245.86s110.081-245.811 245.852-245.811c135.771 0 245.811 110.036 245.811 245.811s-110.040 245.86-245.811 245.86zM511.993 607.585c88.13 0 159.579-71.444 159.579-159.585 0-88.13-71.45-159.583-159.579-159.583-88.137 0-159.579 71.453-159.579 159.583 0 88.141 71.442 159.585 159.579 159.585z" />
<glyph unicode="&#xe932;" glyph-name="tg" horiz-adv-x="1237" d="M326.653 353.911l-270.733 88.209c0 0-32.355 13.129-21.937 42.893 2.145 6.14 6.471 11.362 19.413 20.339 59.987 41.813 1110.315 419.328 1110.315 419.328s29.653 9.993 47.147 3.347c4.326-1.339 8.218-3.804 11.281-7.142 3.059-3.338 5.18-7.429 6.144-11.855 1.89-7.818 2.679-15.861 2.347-23.897-0.081-6.952-0.926-13.395-1.562-23.5-6.396-103.214-197.833-873.533-197.833-873.533s-11.452-45.077-52.489-46.622c-10.086-0.324-20.13 1.382-29.542 5.022s-17.993 9.139-25.233 16.166c-80.525 69.269-358.857 256.32-420.361 297.459-1.387 0.943-2.556 2.176-3.426 3.614-0.87 1.434-1.425 3.038-1.621 4.706-0.862 4.335 3.853 9.707 3.853 9.707s484.651 430.791 497.545 476.015c0.998 3.504-2.773 5.232-7.838 3.698-32.188-11.842-590.202-364.231-651.788-403.121-4.433-1.344-9.119-1.626-13.682-0.832z" />
<glyph unicode="&#xe933;" glyph-name="YouTube" d="M919.52 663.040c-8.16 45.040-47.040 77.84-92.16 88.080-67.52 14.32-192.48 24.56-327.68 24.56-135.12 0-262.080-10.24-329.68-24.56-45.040-10.24-84-40.96-92.16-88.080-8.24-51.2-16.4-122.88-16.4-215.040s8.16-163.84 18.4-215.040c8.24-45.040 47.12-77.84 92.16-88.080 71.68-14.32 194.56-24.56 329.76-24.56s258.080 10.24 329.76 24.56c45.040 10.24 83.92 40.96 92.16 88.080 8.16 51.2 18.4 124.96 20.48 215.040-4.16 92.16-14.4 163.84-24.64 215.040zM389.12 304.64v286.72l249.84-143.36z" />
<glyph unicode="&#xe934;" glyph-name="guitar-2" horiz-adv-x="1007" d="M192.433 176.762c-6.529 6.529-15.385 10.197-24.619 10.197-9.233 0-18.088-3.668-24.617-10.197s-10.197-15.383-10.197-24.617c0-9.233 3.668-18.088 10.197-24.617l48.306-48.306c3.108-3.222 6.826-5.796 10.937-7.568s8.534-2.707 13.010-2.755c6.82 0.073 13.469 2.129 19.137 5.919s10.11 9.15 12.78 15.424c2.672 6.273 3.458 13.19 2.263 19.904-1.196 6.712-4.321 12.932-8.995 17.897l-48.202 48.719zM226.185 95.116l-1.445-1.341c-2.477-2.477-5.838-3.87-9.342-3.87s-6.864 1.392-9.342 3.87l-47.997 48.306c-12.489 12.489 7.225 32.41 20.025 20.644l48.306-48.41c1.278-1.255 2.291-2.757 2.976-4.415 0.684-1.657 1.027-3.435 1.007-5.227-0.018-1.794-0.4-3.564-1.12-5.206s-1.766-3.122-3.070-4.35zM979.474 942.226l-28.902 1.239c-3.206 0.129-6.402-0.409-9.388-1.582-2.984-1.173-5.693-2.954-7.953-5.23l-16.619-16.825-6.296 6.296c-1.975 1.691-4.516 2.575-7.113 2.474s-5.062-1.177-6.9-3.016c-1.838-1.838-2.915-4.302-3.014-6.9-0.101-2.598 0.783-5.138 2.474-7.112l6.398-6.4-18.475-18.786-6.502 6.503c-0.96 0.967-2.103 1.735-3.359 2.259-1.259 0.524-2.608 0.794-3.97 0.794s-2.712-0.27-3.969-0.794c-1.259-0.524-2.4-1.292-3.359-2.259-1.922-1.934-3.001-4.55-3.001-7.277s1.079-5.343 3.001-7.277l6.606-6.606-18.477-18.683-6.709 6.709c-1.934 1.922-4.55 3.001-7.277 3.001s-5.343-1.079-7.277-3.001c-0.968-0.96-1.736-2.101-2.259-3.359s-0.794-2.607-0.794-3.969c0-1.363 0.271-2.712 0.794-3.969s1.292-2.399 2.259-3.359l6.813-6.812c-24.464-24.669-352.595-340.621-355.794-343.718-10.346 24.911-14.291 52.016-11.479 78.843 2.813 26.825 12.295 52.523 27.58 74.747 2.588 3.609 4.005 7.926 4.058 12.369 0.055 4.441-1.257 8.792-3.757 12.463s-6.068 6.486-10.22 8.062c-4.152 1.577-8.687 1.842-12.995 0.755-42.296-11.148-80.609-33.952-110.574-65.817-29.965-31.863-50.377-71.503-58.911-114.402-2.852-14.237-10.618-27.019-21.938-36.113s-25.474-13.921-39.992-13.639c-29.962 1.174-59.848-3.807-87.809-14.637-27.961-10.828-53.406-27.276-74.76-48.326-91.452-91.349-82.575-249.479 20.644-352.388 160.092-160.092 425.364-81.852 412.874 154.827-0.525 13.566 3.584 26.906 11.65 37.825 8.068 10.919 19.611 18.766 32.733 22.249 18.729 5.426 36.392 14.014 52.229 25.392 3.642 2.532 6.44 6.098 8.035 10.238 1.595 4.139 1.914 8.661 0.915 12.983-1.001 4.321-3.273 8.245-6.524 11.262s-7.333 4.991-11.717 5.668c-30.966 4.644-57.803 20.644-90.73 49.235l371.586 385.521 48.41 20.024c10.577 4.334 20.036 11.005 27.668 19.514 7.634 8.509 13.243 18.634 16.405 29.618l26.735 91.658c1.006 3.364 1.234 6.912 0.666 10.377s-1.919 6.754-3.949 9.619c-2.028 2.865-4.684 5.23-7.764 6.916-3.079 1.686-6.502 2.649-10.009 2.815zM597.565 296.389c0.266-0.023 0.515-0.14 0.704-0.329 0.19-0.188 0.306-0.438 0.329-0.704 0.109-0.335 0.107-0.697-0.005-1.031s-0.327-0.624-0.614-0.827c-14.042-9.954-29.632-17.522-46.138-22.399-17.572-4.843-32.981-15.504-43.705-30.241-10.726-14.737-16.133-32.679-15.337-50.888 10.323-220.165-232.757-284.16-377.78-139.138-94.858 94.857-104.251 239.88-20.644 323.28 18.792 18.45 41.059 32.986 65.51 42.767 24.452 9.779 50.6 14.61 76.932 14.21h5.264c19.362-0.377 38.24 6.065 53.334 18.196 15.094 12.133 25.445 29.184 29.242 48.173 7.781 39.151 26.431 75.319 53.813 104.362s62.39 49.788 101.014 59.859c0.826 0 1.652-0.93 1.032-1.549-18.46-26.072-29.686-56.569-32.532-88.388s2.786-63.825 16.326-92.76c-128.301-123.863-84.949-81.543-94.031-90.627-113.54-113.54-111.682-112.714-112.714-112.714-6.82-0.071-13.469-2.129-19.137-5.919s-10.11-9.15-12.782-15.423c-2.671-6.274-3.457-13.19-2.261-19.904 1.196-6.712 4.321-12.932 8.995-17.899l48.306-48.306c4.965-4.672 11.185-7.799 17.899-8.993 6.712-1.196 13.629-0.41 19.902 2.261 6.274 2.672 11.634 7.113 15.424 12.782s5.847 12.318 5.919 19.136c172.374 172.065 134.905 136.868 155.859 157.822 32.824-29.21 63.893-49.235 102.083-54.809h-0.206zM315.159 203.492c2.477-2.477 3.87-5.838 3.87-9.342s-1.392-6.864-3.87-9.342l-1.341-1.445c-2.509-2.458-5.881-3.835-9.393-3.835s-6.886 1.377-9.393 3.835l-48.1 47.893c-1.359 1.33-2.398 2.948-3.042 4.735-0.642 1.787-0.874 3.698-0.674 5.587 0.081 2.725 0.936 5.369 2.468 7.625 1.529 2.256 3.672 4.030 6.174 5.113s5.26 1.43 7.953 1.003c2.692-0.428 5.208-1.614 7.249-3.42l48.1-48.409zM278.827 268.623l98.573 98.469 19.302-19.301-98.368-98.368c-16.41 16.103-17.96 17.857-19.301 18.787l-0.206 0.413zM312.888 234.458l98.368 98.367 19.405-18.992-98.471-98.471c-1.96 1.96 0.102-0.104-19.302 19.096zM392.367 381.131l29.83 28.695 51.61-51.61-28.695-29.83c-31.688 31.584-19.611 19.507-52.744 52.744zM488.154 373.080l-51.403 51.093 29.83 28.593 49.958-49.958-28.385-29.727zM531.195 417.67l-49.543 49.545c1.031 1.032 13.418 12.8 29.726 28.695l48.513-48.41-28.695-29.83zM574.238 462.364l-47.893 47.583 29.83 28.695 46.759-46.757-28.695-29.521zM617.28 507.057l-46.346 46.242 29.83 28.902 45.21-45.21-28.693-29.934zM660.219 551.234l-44.59 44.592 29.83 28.798 43.558-43.558-28.798-29.831zM703.26 595.928l-42.939 42.939 29.831 28.798 41.906-41.906-28.799-29.83zM746.407 641.036l-41.289 41.287 29.727 28.591 40.255-40.255-28.693-29.623zM789.345 685.419l-39.739 39.738 29.83 28.695 38.605-38.603-28.695-29.83zM832.386 730.112l-38.086 37.881 29.83 28.695 36.952-36.951-28.695-29.625zM954.082 826.312c-2.314-7.99-6.417-15.349-11.996-21.519s-12.491-10.988-20.209-14.092l-44.073-18.166-38.501 39.12 11.973 12.076 11.355-11.354c1.974-1.691 4.514-2.575 7.112-2.474s5.062 1.177 6.9 3.016c1.838 1.838 2.915 4.303 3.016 6.9 0.099 2.598-0.785 5.138-2.474 7.112l-11.355 11.457 18.477 18.786 11.56-11.56c1.975-1.691 4.516-2.575 7.113-2.474 2.596 0.1 5.061 1.177 6.899 3.016s2.915 4.302 3.016 6.9c0.101 2.598-0.783 5.138-2.474 7.112l-12.179 11.664 18.475 18.683 11.768-11.767c1.944-1.944 4.58-3.036 7.328-3.036s5.384 1.092 7.328 3.036c1.944 1.944 3.036 4.58 3.036 7.329s-1.092 5.385-3.036 7.329l-11.87 11.87c17.651 17.547 16.825 17.547 18.373 17.547 30.966-1.342 29.727-0.929 30.966-2.271s1.962 4.438-26.527-94.032v-0.206zM351.612 112.143c-5.171-5.166-8.696-11.75-10.124-18.919s-0.7-14.6 2.096-21.355c2.795-6.755 7.531-12.529 13.609-16.59 6.078-4.063 13.223-6.23 20.535-6.23 7.31 0 14.455 2.167 20.533 6.23 6.078 4.061 10.815 9.835 13.609 16.59 2.796 6.755 3.526 14.186 2.096 21.355-1.429 7.17-4.953 13.753-10.124 18.919-6.929 6.922-16.321 10.808-26.114 10.808-9.794 0-19.187-3.886-26.115-10.808zM389.287 74.468c-2.294-2.236-5.191-3.754-8.337-4.364-3.145-0.609-6.4-0.284-9.363 0.933-2.963 1.219-5.505 3.277-7.312 5.923s-2.799 5.762-2.857 8.965c-0.007 2.682 0.647 5.325 1.904 7.695 1.259 2.368 3.080 4.39 5.307 5.886s4.786 2.421 7.455 2.69c2.669 0.271 5.363-0.122 7.844-1.141 2.481-1.021 4.672-2.636 6.379-4.705 1.708-2.068 2.877-4.527 3.407-7.155 0.53-2.629 0.403-5.35-0.368-7.918-0.773-2.568-2.165-4.907-4.058-6.81z" />
<glyph unicode="&#xe935;" glyph-name="guitar-1" d="M993.919 844.452c3.744 2.568 6.877 5.928 9.18 9.842 2.301 3.914 3.714 8.286 4.137 12.807s-0.152 9.079-1.686 13.353c-1.534 4.273-3.99 8.157-7.193 11.376l-42.527 42.527c-3.067 3.083-6.748 5.485-10.807 7.051-4.056 1.566-8.398 2.259-12.741 2.035-4.344-0.224-8.59-1.36-12.465-3.335s-7.29-4.743-10.024-8.125l-1.756-2.064-8.258 8.567c-1.974 1.691-4.514 2.575-7.112 2.474s-5.062-1.177-6.9-3.016c-1.838-1.838-2.915-4.303-3.016-6.9s0.783-5.138 2.474-7.112l10.323-10.322-16.308-19.715-12.078 12.077c-1.934 1.922-4.55 3.002-7.277 3.002s-5.343-1.079-7.277-3.002c-0.966-0.96-1.734-2.101-2.259-3.359s-0.793-2.607-0.793-3.97 0.269-2.712 0.793-3.97c0.525-1.258 1.293-2.399 2.259-3.359l13.522-13.522-16.102-19.818-15.38 15.38c-0.96 0.967-2.101 1.735-3.359 2.259s-2.606 0.794-3.969 0.794c-1.363 0-2.712-0.27-3.97-0.794s-2.4-1.292-3.359-2.259c-1.922-1.934-3.001-4.55-3.001-7.277s1.079-5.343 3.001-7.277l17.031-17.031c-21.78-26.631-7.741-11.87-60.796-63.48-226.363-217.486-215.732-207.372-225.229-216.764l-18.373 18.785c-17.23 17.225-38.484 29.878-61.838 36.816-23.352 6.938-48.067 7.941-71.906 2.92-23.839-5.023-46.049-15.912-64.618-31.681-18.571-15.77-32.913-35.923-41.73-58.632-7.531-19.611-22.313-35.577-41.289-44.592l-121.181-57.803c-28.813-13.748-53.905-34.212-73.165-59.671-19.261-25.461-32.127-55.172-37.518-86.639s-3.149-63.767 6.538-94.187c9.687-30.419 26.535-58.069 49.129-80.623l95.17-95.169c22.554-22.594 50.204-39.442 80.623-49.129s62.72-11.93 94.187-6.539 61.177 18.259 86.639 37.518c25.46 19.261 45.923 44.352 59.671 73.166l57.803 121.076c9.015 18.975 24.981 33.759 44.592 41.289 22.729 8.811 42.901 23.156 58.685 41.733s26.682 40.801 31.704 64.656c5.024 23.856 4.013 48.587-2.938 71.953s-19.626 44.625-36.874 61.855l-18.785 18.477c11.251 11.87 86.911 90.112 90.525 94.033 193.848 200.972 161.747 169.18 189.719 191.888 18.477-18.477 18.683-19.922 24.257-19.922 2.020 0.030 3.989 0.649 5.658 1.785 1.671 1.136 2.971 2.738 3.741 4.606s0.974 3.921 0.588 5.905c-0.386 1.984-1.348 3.809-2.761 5.252l-15.38 15.38 19.922 16.205c13.831-13.832 15.276-16.618 20.644-16.618 2.050-0.012 4.058 0.586 5.766 1.721 1.709 1.133 3.041 2.75 3.827 4.643s0.991 3.978 0.588 5.988c-0.403 2.010-1.396 3.855-2.852 5.299l-11.87 11.974 19.819 16.102c10.94-10.941 12.179-13.109 17.444-13.109 2.050-0.012 4.056 0.587 5.766 1.72 1.708 1.133 3.041 2.75 3.827 4.643s0.991 3.978 0.588 5.989c-0.405 2.010-1.397 3.855-2.852 5.298l-8.567 8.567zM750.937 646.681l-40.36 40.256 28.49 27.973 39.739-39.844-27.869-28.386zM708.616 602.812l-41.804 41.908 29.004 27.972 41.289-41.289-28.489-28.591zM666.812 558.944l-43.868 43.868 28.902 27.869 42.423-42.423-27.456-29.314zM608.492 588.154l43.973-44.075-27.871-28.902-45.003 45.107 28.902 27.869zM564.624 545.937l45.727-45.624-27.973-29.004-46.655 46.759 28.902 27.869zM489.272 276.221c-9.766-9.824-21.377-17.621-34.167-22.941s-26.507-8.060-40.359-8.060c-13.852 0-27.569 2.74-40.357 8.060-12.79 5.32-24.403 13.117-34.169 22.941-73.7 73.493-6.194 200.559 98.266 177.231-11.353-10.84-14.037-12.387-14.037-17.755-78.655 10.323-127.993-87.841-70.19-145.438 12.564-12.527 28.712-20.84 46.207-23.787s35.475-0.383 51.449 7.338c15.974 7.721 29.153 20.216 37.713 35.756 8.562 15.542 12.080 33.358 10.068 50.985 2.724 0.040 5.32 1.153 7.226 3.097l10.323 10.942c4.101-17.421 3.683-35.602-1.212-52.817s-14.106-32.895-26.761-45.553zM479.673 350.746c-0.021-14.463-4.881-28.505-13.801-39.89-8.922-11.383-21.395-19.458-35.434-22.936-14.040-3.477-28.839-2.16-42.043 3.743s-24.056 16.052-30.826 28.834c-6.772 12.782-9.074 27.46-6.54 41.7s9.758 27.224 20.521 36.885c10.764 9.66 24.449 15.444 38.879 16.432 14.43 0.986 28.776-2.882 40.755-10.99l17.651-17.753c7.077-10.681 10.846-23.212 10.838-36.025zM499.388 386.048c-36.127 35.819-13.315 13.419-49.856 49.753 20.644 20.644 10.94 10.321 27.044 26.011l48.823-48.823-26.011-26.941zM539.747 427.337l-48.41 48.41 28.902 27.973 47.276-47.276-27.767-29.108zM629.755 453.865c14.888-14.784 25.836-33.059 31.845-53.16s6.889-41.388 2.558-61.916c-4.332-20.528-13.736-39.644-27.354-55.603-13.618-15.961-31.017-28.256-50.607-35.762-24.465-9.493-44.395-27.947-55.74-51.611l-57.39-120.459c-12.303-25.884-30.641-48.437-53.474-65.759s-49.491-28.908-77.732-33.784c-28.243-4.876-57.242-2.899-84.561 5.766-27.318 8.666-52.156 23.763-72.427 44.025l-95.272 95.272c-20.288 20.252-35.411 45.082-44.097 72.4s-10.679 56.323-5.812 84.572c4.867 28.249 16.451 54.914 33.777 77.751 17.326 22.835 39.887 41.175 65.781 53.469l120.768 57.39c23.664 11.345 42.118 31.275 51.611 55.74 7.528 19.572 19.834 36.95 35.794 50.551 15.961 13.603 35.072 22.995 55.59 27.324 20.518 4.331 41.794 3.458 61.889-2.535 20.097-5.994 38.374-16.919 53.169-31.782l18.166-18.166-80.409-77.518c-26.969 9.269-56.285 9.125-83.162-0.408s-49.732-27.894-64.834-52.085c-15.101-24.191-21.56-52.787-18.321-81.121s15.984-54.733 36.155-74.892c20.183-20.054 46.554-32.695 74.828-35.871s56.791 3.302 80.921 18.379c24.128 15.078 42.45 37.87 51.991 64.674 9.54 26.806 9.738 56.047 0.56 82.979l77.518 80.513 18.27-18.373zM793.052 690.447l-38.709 38.707 29.006 27.973 37.675-37.677-27.972-29.004zM835.371 734.315l-37.16 37.16 29.006 27.456 35.714-35.61-27.56-29.006zM878.415 777.358l-37.057 37.057 84.744 104.563c0.917 1.145 2.066 2.082 3.373 2.748s2.74 1.046 4.205 1.114c1.467 0.068 2.928-0.176 4.291-0.717s2.596-1.367 3.615-2.422l42.217-42.114c1.049-1.026 1.866-2.264 2.4-3.631 0.532-1.367 0.768-2.832 0.689-4.297-0.078-1.465-0.467-2.897-1.143-4.2-0.674-1.303-1.62-2.447-2.771-3.355l-104.562-84.745z" />
<glyph unicode="&#xe936;" glyph-name="play-1" d="M376.819 681.637c-4.532-2.618-8.297-6.382-10.915-10.917-2.616-4.532-3.991-9.675-3.991-14.908v-415.628c0.004-5.231 1.385-10.371 4-14.899 2.618-4.53 6.38-8.292 10.91-10.91 4.53-2.616 9.67-3.994 14.901-3.998 5.231-0.002 10.371 1.371 14.904 3.982l359.943 207.823c4.532 2.618 8.294 6.382 10.91 10.917 2.616 4.532 3.991 9.675 3.991 14.908s-1.376 10.374-3.991 14.906c-2.616 4.535-6.378 8.299-10.91 10.917l-359.943 207.823c-4.535 2.609-9.675 3.98-14.906 3.978-5.234-0.002-10.371-1.38-14.904-3.994zM421.534 604.18l270.51-156.173-270.51-156.173v312.347zM22.261 448.004c0-96.864 28.723-191.55 82.537-272.088 53.814-80.54 130.301-143.311 219.792-180.38 89.489-37.067 187.96-46.766 282.962-27.868 95 18.897 182.265 65.54 250.758 134.033s115.135 155.757 134.033 250.758c18.897 95.003 9.198 193.474-27.871 282.962-37.067 89.491-99.838 165.978-180.378 219.792-80.538 53.814-175.224 82.537-272.088 82.537-129.843-0.144-254.328-51.789-346.143-143.603-91.814-91.815-143.458-216.3-143.603-346.143zM942.131 448.004c0-85.072-25.226-168.232-72.488-238.966-47.264-70.732-114.439-125.863-193.035-158.417-78.594-32.557-165.078-41.074-248.514-24.478-83.436 16.598-160.078 57.562-220.232 117.718-60.154 60.153-101.119 136.793-117.716 220.229s-8.079 169.922 24.476 248.516c32.555 78.594 87.685 145.771 158.419 193.034s153.894 72.489 238.964 72.489c114.038-0.126 223.368-45.483 304.006-126.12 80.636-80.636 125.992-189.966 126.119-304.004z" />
<glyph unicode="&#xe937;" glyph-name="NL4" d="M509.332 829.479c2.714 56.546 18.086 99.827 37.107 130.521-119.26-36.424-311.519-223.321-361.385-341.083-25.277-59.703-28.918-122.679-10.907-185.809 45.541-159.613 122.125-306.732 233.876-437.478 68.019-79.581 142.786-79.436 215.739 0 88.14 95.983 234.17 362.676 237.26 497.104 1.937 84.064-37.713 153.44-99.823 212.942 20.422-38.664 30.388-75.596 29.713-113.681-0.617-34.785-20.794-51.028-66.083-51.441-55.302-0.502-72.239 28.317-50.118 88.936 4.713 12.904 11.258 27.317 16.943 44.231 22.79 67.775 11.148 120.082-32.931 156.241-19.817-61.534-47.977-90.85-84.482-87.975-42.904 3.377-67.546 32.595-64.908 87.491z" />
<glyph unicode="&#xe938;" glyph-name="movie" d="M674.934 380.623l-261.234 145.13c-4.419 2.455-9.401 3.715-14.456 3.655-5.055-0.062-10.006-1.443-14.363-4.005-4.356-2.564-7.969-6.22-10.48-10.61-2.509-4.388-3.829-9.354-3.829-14.409v-290.262c0-5.053 1.32-10.020 3.829-14.407 2.507-4.388 6.117-8.043 10.472-10.607 4.37-2.536 9.318-3.9 14.367-3.962 5.051-0.062 10.033 1.18 14.461 3.608l261.234 145.13c4.523 2.515 8.292 6.193 10.915 10.654 2.625 4.459 4.007 9.541 4.007 14.714 0 5.176-1.382 10.256-4.007 14.717-2.622 4.459-6.391 8.139-10.915 10.654zM428.624 259.459v191.588l172.442-95.793-172.442-95.795zM80.313 35.967h870.78c15.391 0.016 30.148 6.137 41.031 17.021s17.005 25.64 17.021 41.031v696.625c-0.016 15.392-6.137 30.149-17.021 41.032s-25.64 17.005-41.031 17.020h-870.78c-15.392-0.015-30.149-6.136-41.032-17.020s-17.005-25.64-17.020-41.032v-696.625c0.015-15.391 6.136-30.148 17.020-41.031s25.64-17.005 41.032-17.021zM80.313 790.644h870.78l0.007-116.104h-870.787v116.104zM80.313 616.488h870.792l0.031-522.469h-870.823v522.469zM167.391 732.592c0-5.741-1.702-11.353-4.892-16.126s-7.723-8.494-13.027-10.691c-5.304-2.197-11.14-2.772-16.77-1.652s-10.803 3.885-14.862 7.944c-4.059 4.059-6.824 9.231-7.944 14.862s-0.545 11.467 1.652 16.77c2.197 5.304 5.917 9.837 10.691 13.027s10.385 4.892 16.126 4.892c7.698 0 15.081-3.058 20.525-8.501s8.501-12.826 8.501-20.525zM254.468 732.592c0-5.741-1.703-11.353-4.891-16.126-3.19-4.773-7.722-8.494-13.027-10.691s-11.139-2.772-16.77-1.652c-5.631 1.12-10.803 3.885-14.862 7.944s-6.824 9.231-7.944 14.862c-1.12 5.63-0.545 11.467 1.652 16.77s5.917 9.837 10.691 13.027c4.773 3.189 10.385 4.892 16.126 4.892 7.698 0 15.082-3.058 20.525-8.501s8.501-12.826 8.501-20.525zM341.546 732.592c0-5.741-1.701-11.353-4.891-16.126s-7.722-8.494-13.027-10.691c-5.305-2.197-11.139-2.772-16.771-1.652-5.63 1.12-10.801 3.885-14.861 7.944-4.058 4.059-6.823 9.231-7.943 14.862s-0.545 11.467 1.652 16.77c2.197 5.304 5.917 9.837 10.69 13.027s10.385 4.892 16.126 4.892c7.698 0 15.082-3.058 20.525-8.501 5.445-5.443 8.501-12.826 8.501-20.525z" />
<glyph unicode="&#xe939;" glyph-name="voice-off" horiz-adv-x="1065" d="M589.128 836.441c-5.333-0.64-13.332-2.72-17.998-4.64s-72.651-47.68-151.13-101.6l-142.8-98.24h-51.988c-31.493 0-55.654-0.64-60.986-1.76-29.826-5.92-54.987-30.080-61.152-58.72-2.499-11.84-2.499-270.4 0-282.242 6.165-28.479 31.493-52.797 61.152-58.72 5.332-1.118 29.493-1.757 60.986-1.757h51.988l142.8-98.243c78.479-53.92 146.465-99.68 151.298-101.597 16.327-6.722 38.322-6.881 56.82-0.16 19.493 6.877 39.158 27.677 46.653 49.279 3.834 10.719 3.834 11.198 4.334 119.681l0.5 109.117 10.83 1.122c55.321 5.599 99.48 42.717 112.476 94.401 17.662 70.398-32.993 140.157-108.81 149.919l-14.664 1.92v101.6c0 56.8-0.831 106.56-1.663 112.48-6.668 44.16-45.158 73.76-88.646 68.16zM607.789 778.361c2.83-1.44 6.496-5.28 8.331-8.8 3.33-6.24 3.33-8.96 3.33-339.198 0-330.24 0-332.964-3.33-339.202-3.498-6.562-10.498-11.198-16.998-11.198-2.499 0-54.985 35.197-142.963 95.678l-139.135 95.678v318.082l139.135 95.68c87.978 60.48 140.464 95.68 142.963 95.68 2.167 0 6.001-1.12 8.667-2.4zM257.871 430.363v-144.003h-85.313l-11.33 10.883v266.238l11.33 10.88h85.313v-143.998zM708.264 489.722c26.329-12.161 42.992-42.242 37.99-69.12-5.165-28.963-29.991-52.642-57.819-55.362l-8.999-0.958v132.157l8.999-0.958c5.001-0.479 13.996-3.039 19.829-5.759zM748.929 680.911c-12.497-4.32-19.497-14.080-19.497-26.56 0-13.6 7.664-22.72 24.162-28.64 61.317-22.080 109.642-70.24 130.634-130.562 7.168-20.799 10.166-39.518 10.166-64.799 0-32.961-5.833-59.199-19.329-87.839-13.832-29.123-43.323-63.201-70.652-81.601-13.996-9.441-39.657-22.241-52.986-26.558-25.494-8.004-33.657-33.12-15.995-49.123 10.662-9.437 21.66-9.916 42.988-1.917 74.15 28.16 133.636 86.557 159.13 156.32 25.993 71.201 21.828 141.279-12.497 208.318-13.996 27.2-28.828 47.041-52.322 69.6-27.824 26.72-56.32 45.12-90.644 58.24-17.994 7.040-24.826 8-33.157 5.12zM60.32 30.872l904.882 868.893 30.163-28.963-904.882-868.893-30.163 28.963z" />
<glyph unicode="&#xe93a;" glyph-name="full-screen-mobile-version" horiz-adv-x="872" d="M838.281 621.222l-225.307 220.67c-10.699 10.45-25.19 16.319-40.296 16.319-15.11 0-29.601-5.869-40.296-16.319l-498.957-488.692c-10.684-10.475-16.685-24.678-16.685-39.488 0-14.806 6.001-29.010 16.685-39.488l225.307-220.668c5.294-5.188 11.58-9.303 18.497-12.11s14.333-4.251 21.821-4.251c7.488 0 14.903 1.445 21.82 4.251s13.204 6.921 18.498 12.11l498.96 488.691c10.684 10.479 16.684 24.678 16.684 39.488 0 14.808-6.045 29.011-16.729 39.488zM504.286 751.167l241.406-236.44-355.427-348.111-241.406 236.438 355.427 348.113zM307.121 85.136c-1.059-1.039-2.317-1.866-3.703-2.427-1.385-0.565-2.87-0.853-4.37-0.853s-2.985 0.288-4.37 0.853c-1.385 0.561-2.643 1.388-3.703 2.427l-67.045 65.665 22.804 22.335-91.217 89.342-22.804-22.335-67.045 65.665c-1.062 1.035-1.904 2.268-2.479 3.626s-0.871 2.81-0.871 4.278c0 1.472 0.296 2.924 0.871 4.282s1.417 2.59 2.479 3.626l50.945 49.854 241.406-236.442-50.899-49.895zM806.078 573.827l-28.137-27.515-241.406 236.437 28.092 27.517c1.062 1.040 2.317 1.865 3.705 2.428 1.384 0.563 2.867 0.853 4.369 0.853 1.498 0 2.985-0.29 4.369-0.853s2.643-1.388 3.702-2.428l225.307-220.67c2.131-2.094 3.33-4.928 3.33-7.884 0-2.954-1.198-5.791-3.33-7.884zM869.657 293.968v-91.929c-0.034-35.533-14.461-69.598-40.114-94.72-25.653-25.126-60.435-39.257-96.711-39.291h-150.141l74.57-72.992-32.248-31.581-129.893 127.177 129.893 127.219 32.248-31.581-75.12-73.573h150.691c24.185 0.023 47.373 9.444 64.474 26.195 17.101 16.748 26.719 39.458 26.745 63.147v91.929h45.606zM48.201 604.069h-45.609v89.34c0.036 35.531 14.463 69.596 40.115 94.72s60.433 39.254 96.71 39.29h150.189l-75.118 73.527 32.245 31.582 129.893-127.176-129.848-127.131-32.245 31.582 74.479 72.946h-149.596c-24.185-0.024-47.372-9.444-64.474-26.193s-26.719-39.46-26.743-63.147v-89.34z" />
<glyph unicode="&#xe93b;" glyph-name="settings-arrow-down" horiz-adv-x="579" d="M549.843 742.957l-39.791 7.235c-3.617 7.235-3.617 14.47-7.235 21.704l21.704 32.557 18.087 25.322-94.052 94.052-25.322-18.087-32.557-21.704c-7.235 3.617-14.47 3.617-21.704 7.235l-7.235 39.791-7.235 28.939h-130.226l-7.235-28.939-7.235-39.791c-7.235-3.617-14.47-3.617-21.704-7.235l-32.557 21.704-25.322 14.47-90.435-90.435 18.087-25.322 21.704-32.557c-7.235-7.235-7.235-14.47-10.852-21.704l-39.791-7.235-28.939-7.235v-130.226l28.939-7.235 39.791-7.235c3.617-7.235 3.617-14.47 7.235-21.704l-21.704-32.557-18.087-25.322 94.052-94.052 25.322 18.087 32.557 21.704c7.235-3.617 14.47-3.617 21.704-7.235l7.235-39.791 7.235-28.939h130.226l7.235 28.939 7.235 39.791c7.235 3.617 14.47 3.617 21.704 7.235l32.557-21.704 25.322-18.087 94.052 94.052-18.087 25.322-21.704 32.557c3.617 7.235 7.235 14.47 7.235 21.704l39.791 7.235 28.939 7.235v130.226l-28.939 7.235zM542.609 634.435l-61.496-10.852c-3.617-18.087-10.852-36.174-21.704-54.261l32.557-50.643-50.643-50.643-50.643 32.557c-18.087-10.852-36.174-18.087-54.261-21.704l-10.852-61.496h-72.348l-10.852 61.496c-18.087 3.617-36.174 10.852-54.261 21.704l-50.643-32.557-50.643 50.643 32.557 50.643c-10.852 18.087-18.087 36.174-21.704 54.261l-61.496 10.852v72.348l61.496 10.852c3.617 18.087 10.852 36.174 21.704 54.261l-36.174 50.643 50.643 50.643 50.643-32.557c18.087 10.852 36.174 18.087 54.261 21.704l14.47 61.496h72.348l10.852-61.496c18.087-3.617 36.174-10.852 54.261-21.704l50.643 32.557 50.643-50.643-32.557-50.643c10.852-18.087 18.087-36.174 21.704-54.261l61.496-10.852v-72.348zM289.391 797.217c-68.73 0-126.609-57.878-126.609-126.609s57.878-126.609 126.609-126.609c68.73 0 126.609 57.878 126.609 126.609s-57.878 126.609-126.609 126.609zM289.391 580.174c-50.643 0-90.435 39.791-90.435 90.435s39.791 90.435 90.435 90.435c50.643 0 90.435-39.791 90.435-90.435s-39.791-90.435-90.435-90.435zM422.013 241.655c-0.939-2.286-8.299-9.819-62.482-63.791-49.64-49.453-62.010-61.502-64.098-62.491-1.932-0.935-3.497-1.247-6.004-1.247-6.89 0-2.609-3.844-70.258 63.53-58.618 58.335-61.228 60.984-62.272 63.893-1.409 3.791-1.409 6.805 0.052 10.596 0.888 2.493 2.088 4 7.151 9.040 7.464 7.48 9.239 8.466 14.929 8.519 3.027 0 4.75-0.26 6.264-0.988 1.409-0.675 18.53-17.297 53.138-51.685l50.997-50.699 51.051 50.75c28.029 27.895 51.832 51.115 52.823 51.634 0.993 0.467 3.497 0.988 5.534 1.144 5.741 0.363 8.35-1.040 15.919-8.624 5.064-5.091 6.213-6.598 7.152-9.091 1.409-3.686 1.409-7.063 0.105-10.492z" />
<glyph unicode="&#xe93c;" glyph-name="settings-arrow-up" horiz-adv-x="579" d="M549.843 297.739l-39.791 7.235c-3.617 7.235-3.617 14.47-7.235 21.704l21.704 32.557 18.087 25.322-94.052 94.052-25.322-18.087-32.557-21.704c-7.235 3.617-14.47 3.617-21.704 7.235l-7.235 39.791-7.235 28.939h-130.226l-7.235-28.939-7.235-39.791c-7.235-3.617-14.47-3.617-21.704-7.235l-32.557 21.704-25.322 14.47-90.435-90.435 18.087-25.322 21.704-32.557c-7.235-7.235-7.235-14.47-10.852-21.704l-39.791-7.235-28.939-7.235v-130.226l28.939-7.235 39.791-7.235c3.617-7.235 3.617-14.47 7.235-21.704l-21.704-32.557-18.087-25.322 94.052-94.052 25.322 18.087 32.557 21.704c7.235-3.617 14.47-3.617 21.704-7.235l7.235-39.791 7.235-28.939h130.226l7.235 28.939 7.235 39.791c7.235 3.617 14.47 3.617 21.704 7.235l32.557-21.704 25.322-18.087 94.052 94.052-18.087 25.322-21.704 32.557c3.617 7.235 7.235 14.47 7.235 21.704l39.791 7.235 28.939 7.235v130.226l-28.939 7.235zM542.609 189.217l-61.496-10.852c-3.617-18.087-10.852-36.174-21.704-54.261l32.557-50.643-50.643-50.643-50.643 32.557c-18.087-10.852-36.174-18.087-54.261-21.704l-10.852-61.496h-72.348l-10.852 61.496c-18.087 3.617-36.174 10.852-54.261 21.704l-50.643-32.557-50.643 50.643 32.557 50.643c-10.852 18.087-18.087 36.174-21.704 54.261l-61.496 10.852v72.348l61.496 10.852c3.617 18.087 10.852 36.174 21.704 54.261l-36.174 50.643 50.643 50.643 50.643-32.557c18.087 10.852 36.174 18.087 54.261 21.704l14.47 61.496h72.348l10.852-61.496c18.087-3.617 36.174-10.852 54.261-21.704l50.643 32.557 50.643-50.643-32.557-50.643c10.852-18.087 18.087-36.174 21.704-54.261l61.496-10.852v-72.348zM289.391 352c-68.73 0-126.609-57.878-126.609-126.609s57.878-126.609 126.609-126.609c68.73 0 126.609 57.878 126.609 126.609s-57.878 126.609-126.609 126.609zM289.391 134.957c-50.643 0-90.435 39.791-90.435 90.435s39.791 90.435 90.435 90.435c50.643 0 90.435-39.791 90.435-90.435s-39.791-90.435-90.435-90.435zM156.77 654.345c0.94 2.286 8.3 9.819 62.481 63.791 49.64 49.452 62.010 61.503 64.098 62.49 1.932 0.935 3.497 1.247 6.004 1.247 6.89 0 2.609 3.844 70.258-63.53 58.62-58.335 61.229-60.984 62.273-63.893 1.409-3.791 1.409-6.805-0.051-10.596-0.888-2.493-2.088-4-7.152-9.040-7.464-7.48-9.238-8.466-14.928-8.519-3.027 0-4.75 0.26-6.264 0.988-1.409 0.675-18.53 17.297-53.137 51.685l-50.997 50.699-51.051-50.75c-28.029-27.895-51.832-51.115-52.823-51.634-0.992-0.467-3.497-0.988-5.533-1.144-5.742-0.363-8.352 1.040-15.921 8.624-5.063 5.091-6.211 6.598-7.151 9.091-1.409 3.686-1.409 7.063-0.104 10.492z" />
<glyph unicode="&#xe93e;" glyph-name="voice-on" horiz-adv-x="1126" d="M634.010 959.151c-6.666-0.8-16.666-3.4-22.497-5.8s-90.813-59.6-188.913-127l-178.499-122.8h-64.985c-39.366 0-69.567-0.8-76.232-2.2-37.283-7.4-68.734-37.6-76.44-73.4-3.124-14.8-3.124-338 0-352.802 7.706-35.599 39.366-65.997 76.44-73.4 6.665-1.398 36.867-2.196 76.232-2.196h64.985l178.499-122.803c98.1-67.4 183.081-124.6 189.123-126.996 20.408-8.402 47.903-8.602 71.025-0.2 24.366 8.596 48.947 34.596 58.317 61.599 4.792 13.399 4.792 13.998 5.417 149.601l0.625 136.397 13.537 1.403c69.151 6.999 124.349 53.396 140.595 118.001 22.077 87.998-41.242 175.198-136.013 187.398l-18.33 2.4v127c0 71-1.039 133.2-2.079 140.6-8.335 55.2-56.448 92.2-110.807 85.2zM657.336 886.551c3.538-1.8 8.12-6.6 10.414-11 4.163-7.8 4.163-11.2 4.163-424 0-412.797 0-416.202-4.163-424-4.372-8.202-13.123-13.998-21.248-13.998-3.123 0-68.731 43.996-178.705 119.598l-173.917 119.598v397.602l173.917 119.6c109.975 75.6 175.582 119.6 178.705 119.6 2.708 0 7.501-1.4 10.834-3zM219.939 451.551v-180.001h-106.641l-14.163 13.604v332.797l14.163 13.6h106.641v-180zM782.93 525.751c32.911-15.2 53.74-52.8 47.488-86.398-6.456-36.204-37.489-65.802-72.274-69.202l-11.249-1.198v165.198l11.249-1.2c6.252-0.6 17.495-3.8 24.786-7.2zM833.761 764.751c-15.621-5.4-24.371-17.6-24.371-33.2 0-17 9.58-28.4 30.203-35.8 76.646-27.6 137.052-87.8 163.292-163.2 8.96-26 12.708-49.4 12.708-81 0-41.199-7.291-74.002-24.161-109.801-17.29-36.398-54.154-78.996-88.315-102.001-17.495-11.796-49.572-27.796-66.232-33.198-31.867-9.999-42.071-41.4-19.994-61.399 13.327-11.802 27.075-12.401 53.734-2.401 92.687 35.2 167.045 108.201 198.912 195.4 32.492 89.001 27.284 176.601-15.621 260.401-17.495 34-36.035 58.8-65.403 87-34.78 33.4-70.4 56.4-113.306 72.8-22.492 8.8-31.032 10-41.446 6.4z" />
<glyph unicode="&#xea52;" glyph-name="checkbox-checked" d="M896 960h-768c-70.4 0-128-57.6-128-128v-768c0-70.4 57.6-128 128-128h768c70.4 0 128 57.6 128 128v768c0 70.4-57.6 128-128 128zM448 165.49l-237.254 237.256 90.51 90.508 146.744-146.744 306.746 306.746 90.508-90.51-397.254-397.256z" />
<glyph unicode="&#xea53;" glyph-name="checkbox-unchecked" d="M896 960h-768c-70.4 0-128-57.6-128-128v-768c0-70.4 57.6-128 128-128h768c70.4 0 128 57.6 128 128v768c0 70.4-57.6 128-128 128zM896 64h-768v768h768v-768z" />
</font>
</defs>
</svg>
